Останній володар стихій (Повелитель стихій) / The Last Airbender (2010) AVC 2xUkr/Eng | Sub Ukr/Eng

Нові коментарі

Нова тема   Відповісти
Автор Повідомлення
staf777 
Відео Гуртом - підтримка та поширення
Відео Гуртом - підтримка та поширення


З нами з: 16.11.16
Востаннє: 18.10.19
Повідомлень: 2986

2018-10-01 18:39  
Останній володар стихій (Повелитель стихій) / The Last Airbender (2010) AVC 2xUkr/Eng | Sub Ukr/Eng

Останній володар стихій (Повелитель стихій) / The Last Airbender (2010) AVC 2xUkr/Eng | Sub Ukr/Eng


Жанр: бойовик, фентезі, пригоди, сімейний
Країна: США



Кінокомпанія: Paramount Pictures
Режисер: М. Найт Шьямалан
Актори: Ноа Рінгер, Дев Патель, Нікола Пельтц, Джексон Ретбоун, Шон Тоуб, Аасиф Мандві, Кліфф Кертіс, Сейшелл Гебріел, Кетрін Хотон, Френсіс Гуінан

Сюжет:
Повітряні кочівники, Плем'я Води, Царство Землі і Народ Вогню. Чотири нації були пов'язані долею, коли Народ Вогню почав жорстоку війну проти всіх. Минуло сто років без надії щось змінити в цьому світі. Народ Вогню майже близький до перемоги у війні. Опинившись між боротьбою і хоробрістю, юний Аанг розуміє, що він - Аватар, який володіє силою повелівати чотирма стихіями, і те, що тільки він може повернути баланс і відновити мир на землі. Разом з юною володаркою води Катару та її братом Сокко він відправляється в подорож.


Тривалість: 01:43:13
Якість: AVC
Відео:
кодек:
розмір кадру: 1056х448
бітрейт: 2338 кб/с

Аудіо # 1: ,
мова: українська
переклад: професійний дубльований
кодек: 5.1
бітрейт: 448 кб/с
назву перекладено як: Останній володар стихій

Аудіо # 2:
мова: українська
переклад: багатоголосий закадровий
кодек: 2.0
бітрейт: 192 кб/с
назву перекладено як: Повелитель стихій

Аудіо # 3:
мова: англійська
переклад: оригінал
кодек: 2.0
бітрейт: 192 кб/с

Субтитри:
мова: українська
тип: програмні (м'які)
формат: *.srt

Субтитри:
мова: англійська
тип: програмні (м'які)
формат: *.srt
Скріншоти




MI
General
Unique ID : 27186810609546544390246552239395821716 (0x1473FD4070B7DCBF05D45EF6781BD894)
Complete name : N:\Майбутні релізи\The Last Airbender (2010) AVC [UKR_ENG] [Hurtom].
Format :
Format version : Version 4 / Version 2
File size : 2.29 GiB
Duration : 1 h 43 min
Overall bit rate : 3 172 kb/s
Movie name : The Last Airbender (2010) AVC [UKR_ENG] [Hurtom]
Encoded date : UTC 2018-10-01 17:13:11
Writing application : v24.0.0 ('Beyond The Pale') 64-bit
Writing library : libebml v1.3.6 + v1.4.9
Cover : Yes
Attachments : cover.jpg

Video
ID : 1
Format : AVC
Format/Info : Advanced Video Codec
Format profile : [email protected]
Format settings : CABAC / 13 Ref Frames
Format settings, CABAC : Yes
Format settings, ReFrames : 13 frames
Codec ID : V_MPEG4/ISO/AVC
Duration : 1 h 43 min
Bit rate : 2 338 kb/s
Width : 1 056 pixels
Height : 448 pixels
Display aspect ratio : 2.35:1
Frame rate mode : Constant
Frame rate : 23.976 FPS
Color space : YUV
Chroma subsampling : 4:2:0
Bit depth : 8 bits
Scan type : Progressive
Bits/(Pixel*Frame) : 0.206
Stream size : 1.69 GiB (74%)
Title : by Infineon
Writing library : core 110 r1804 e89c4cf
Encoding settings : cabac=1 / ref=13 / deblock=1:-2:-2 / analyse=0x3:0x133 / me=umh / subme=10 / psy=1 / psy_rd=1.00:0.00 / mixed_ref=1 / me_range=32 / chroma_me=1 / trellis=2 / 8x8dct=1 / cqm=0 / deadzone=21,11 / fast_pskip=0 / chroma_qp_offset=-4 / threads=8 / sliced_threads=0 / nr=0 / decimate=1 / interlaced=0 / constrained_intra=0 / bframes=7 / b_pyramid=2 / b_adapt=2 / b_bias=0 / direct=3 / weightb=1 / open_gop=0 / weightp=2 / keyint=250 / keyint_min=23 / scenecut=40 / intra_refresh=0 / rc_lookahead=100 / rc=2pass / mbtree=1 / bitrate=2338 / ratetol=1.0 / qcomp=0.60 / qpmin=10 / qpmax=51 / qpstep=4 / cplxblur=20.0 / qblur=0.5 / ip_ratio=1.40 / aq=1:0.80
Language : English
Default : Yes
Forced : No

Audio #1
ID : 2
Format : AC-3
Format/Info : Audio Coding 3
Codec ID : A_AC3
Duration : 1 h 43 min
Bit rate mode : Constant
Bit rate : 448 kb/s
Channel(s) : 6 channels
Channel positions : Front: L C R, Side: L R, LFE
Sampling rate : 48.0 kHz
Frame rate : 31.250 FPS (1536 SPF)
Bit depth : 16 bits
Compression mode : Lossy
Stream size : 331 MiB (14%)
Title : [UA-DUB]
Language : Ukrainian
Service kind : Complete Main
Default : Yes
Forced : Yes

Audio #2
ID : 3
Format : AC-3
Format/Info : Audio Coding 3
Codec ID : A_AC3
Duration : 1 h 43 min
Bit rate mode : Constant
Bit rate : 192 kb/s
Channel(s) : 2 channels
Channel positions : Front: L R
Sampling rate : 48.0 kHz
Frame rate : 31.250 FPS (1536 SPF)
Bit depth : 16 bits
Compression mode : Lossy
Stream size : 142 MiB (6%)
Title : [UA-MVO]
Language : Ukrainian
Service kind : Complete Main
Default : No
Forced : No

Audio #3
ID : 4
Format : AC-3
Format/Info : Audio Coding 3
Codec ID : A_AC3
Duration : 1 h 43 min
Bit rate mode : Constant
Bit rate : 192 kb/s
Channel(s) : 2 channels
Channel positions : Front: L R
Sampling rate : 48.0 kHz
Frame rate : 31.250 FPS (1536 SPF)
Bit depth : 16 bits
Compression mode : Lossy
Stream size : 142 MiB (6%)
Language : English
Service kind : Complete Main
Default : No
Forced : No

Text #1
ID : 5
Format : UTF-8
Codec ID : S_TEXT/UTF8
Codec ID/Info : UTF-8 Plain Text
Duration : 1 h 34 min
Bit rate : 65 b/s
Count of elements : 726
Stream size : 45.0 KiB (0%)
Language : Ukrainian
Default : No
Forced : No

Text #2
ID : 6
Format : UTF-8
Codec ID : S_TEXT/UTF8
Codec ID/Info : UTF-8 Plain Text
Duration : 1 h 32 min
Bit rate : 38 b/s
Count of elements : 687
Stream size : 25.9 KiB (0%)
Language : English
Default : No
Forced : No

Menu
00:00:00.000 : en:00:00:00.000
00:11:45.371 : en:00:11:45.371
00:18:07.753 : en:00:18:07.753
00:26:34.635 : en:00:26:34.635
00:38:04.991 : en:00:38:04.991
00:51:10.985 : en:00:51:10.985
00:59:56.968 : en:00:59:56.968
01:09:05.725 : en:01:09:05.725
01:18:46.096 : en:01:18:46.096
01:28:10.494 : en:01:28:10.494
01:35:03.197 : en:01:35:03.197
Джерело:
За відео та першу доріжку дякую пану karvai0
За запис з К1 дякую пану РОМЕО Синхронізація Arsenfpu
Особиста оцінка: не дивився
Останній володар стихій (Повелитель стихій) / The Last Airbender (2010) AVC 2xUkr/Eng | Sub Ukr/Eng

Останній володар стихій (Повелитель стихій) / The Last Airbender (2010) AVC 2xUkr/Eng | Sub Ukr/Eng


 Трекер:    Зареєстрований   

Завантажити / скачати фільм українською



відео для новачків



 Зареєстрований:   2018-10-01 20:33
 Розмір:   2.29 GB 
 Оцінка фільму:   6.9/10 (Голосів: 16)
   
MrRyanCooper 
VIP


З нами з: 24.08.12
Востаннє: 07.08.19
Повідомлень: 502

2018-10-01 18:41  
жаль не зняли продовження, в кінці на нього натякають же.
Hanway 
Відео Гуртом - запис з ТБ
Відео Гуртом - запис з ТБ


З нами з: 20.05.11
Востаннє: 18.10.19
Повідомлень: 680

2018-10-01 18:43  
MrRyanCooper
Можете подивитися продовження в оригінальному мультсеріалі, що є справжнім шедевром в порівнянні з цією жалюгідною бездарною підробкою.

Петров Микола 
VIP


З нами з: 15.08.14
Востаннє: 18.10.19
Повідомлень: 596

2018-10-01 19:23  
От би ще хтось виклав мультсеріал в такій якості.
bot 
робот


З нами з: 30.09.07
Востаннє: 26.05.05
Повідомлень: 22309

2018-10-01 20:33  
Тему перенесено з Анонси релізів до форуму Фільми


staf777

Ваш часовий пояс: GMT + 2 Години

Нова тема   Відповісти