Геній: Пікассо / Genius: Picasso (Сезон 2) (2018) AVC Ukr/Eng | Sub Eng

Нові коментарі

Нова тема   Відповісти
Автор Повідомлення
sergiyko.5 
VIP


З нами з: 25.02.16
Востаннє: 22.08.19
Повідомлень: 2442

2018-10-01 17:57  
Геній: Пікассо / Genius: Picasso (Сезон 2) (2018) AVC Ukr/Eng | Sub Eng


Геній: Пікассо / Genius: Picasso (Сезон 2) (2018) AVC Ukr/Eng | Sub Eng

Жанр: біографічний, драма, історичний
Країна: США
Кінокомпанія: EUE / Sokolow, Fox 21 Television Studios, Imagine Television, OddLot Entertainment
Режисер: Кевін Гукс, Мінкі Спіро, Рон Говард
Актори: Антоніо Бандерас, Роберт Шіен, Клеманс Поезі, Поппі Делевінь.

Сюжет:
Генії.Пікассо – це 10-ти серійний фільм, що розповідає нам справжню історію життя одного з найвпливовіших художників ХХ століття.

Захоплюючим серіал робить динамічний та нелінійний сюжет, що не має хронологічного порядку, який зазвичай притаманний для біографічних серіалів. Тому під час перегляду ми часто будемо переноситись з юності в старість Пікассо і навпаки, щоб краще зрозуміти вчинки генія.




Тривалість: 1 серія: 50:12 (цілком серій: 10)
Якість:

Відео: кодек: розмір кадру: 1024 x 512 бітрейт: 1200 кб/с
Аудіо # 1: мова: українська переклад: багатоголосий закадровий кодек: 2.0 бітрейт: 192 кб/с
Озвучення:
Аудіо # 2: мова: англійська переклад: оригінал кодек: 5.1 бітрейт: 384 кб/с
Субтитри: мова: англійська тип: програмні (м'які) формат: *.srt
Перелік серій
01. Picasso: Chapter One
02. Picasso: Chapter Two
03. Picasso: Chapter Three
04. Picasso: Chapter Four
05. Picasso: Chapter Five
06. Picasso: Chapter Six
07. Picasso: Chapter Seven
08. Picasso: Chapter Eight
09. Picasso: Chapter Nine
10. Picasso: Chapter Ten
Про файл:
General
Unique ID : 101290751108071149656228420301882452699 (0x4C33E399C10A8F6EBC979804B390EADB)
Complete name : D:\Torrents\FILMS\Genius Season 2 \Genius.S02E02.Picasso.Chapter.Two..Ukr.Eng.
Format :
Format version : Version 4 / Version 2
File size : 634 MiB
Duration : 49 min 30 s
Overall bit rate : 1 791 kb/s
Movie name : Genius Season 2 720p by sergiyko
Encoded date : UTC 2018-10-02 06:58:58
Writing application : v27.0.0 ('Metropolis') 64-bit
Writing library : libebml v1.3.6 + v1.4.9
Cover : Yes
Attachments : cover.jpg

Video
ID : 1
Format : AVC
Format/Info : Advanced Video Codec
Format profile : [email protected]
Format settings : CABAC / 12 Ref Frames
Format settings, CABAC : Yes
Format settings, ReFrames : 12 frames
Codec ID : V_MPEG4/ISO/AVC
Duration : 49 min 30 s
Bit rate : 1 213 kb/s
Width : 1 024 pixels
Height : 512 pixels
Display aspect ratio : 2.000
Frame rate mode : Constant
Frame rate : 23.976 FPS
Color space : YUV
Chroma subsampling : 4:2:0
Bit depth : 8 bits
Scan type : Progressive
Bits/(Pixel*Frame) : 0.096
Stream size : 430 MiB (68%)
Title : S02E02 Picasso Chapter Two
Writing library : core 146 r2538 121396c
Encoding settings : cabac=1 / ref=12 / deblock=1:-1:-1 / analyse=0x3:0x133 / me=umh / subme=9 / psy=1 / psy_rd=1.00:0.15 / mixed_ref=1 / me_range=24 / chroma_me=1 / trellis=2 / 8x8dct=1 / cqm=0 / deadzone=21,11 / fast_pskip=1 / chroma_qp_offset=-3 / threads=16 / lookahead_threads=2 / sliced_threads=0 / nr=0 / decimate=1 / interlaced=0 / bluray_compat=0 / constrained_intra=0 / bframes=8 / b_pyramid=2 / b_adapt=2 / b_bias=0 / direct=1 / weightb=1 / open_gop=0 / weightp=2 / keyint=250 / keyint_min=23 / scenecut=40 / intra_refresh=0 / rc_lookahead=60 / rc=crf / mbtree=1 / crf=19.0 / qcomp=0.60 / qpmin=0 / qpmax=69 / qpstep=4 / ip_ratio=1.40 / aq=1:1.00
Language : English
Default : Yes
Forced : No

Audio #1
ID : 2
Format : AC-3
Format/Info : Audio Coding 3
Codec ID : A_AC3
Duration : 49 min 30 s
Bit rate mode : Constant
Bit rate : 192 kb/s
Channel(s) : 2 channels
Channel positions : Front: L R
Sampling rate : 48.0 kHz
Frame rate : 31.250 FPS (1536 SPF)
Bit depth : 16 bits
Compression mode : Lossy
Stream size : 68.0 MiB (11%)
Title : MOV | NG
Language : Ukrainian
Service kind : Complete Main
Default : Yes
Forced : Yes

Audio #2
ID : 3
Format : AC-3
Format/Info : Audio Coding 3
Codec ID : A_AC3
Duration : 49 min 30 s
Bit rate mode : Constant
Bit rate : 384 kb/s
Channel(s) : 6 channels
Channel positions : Front: L C R, Side: L R, LFE
Sampling rate : 48.0 kHz
Frame rate : 31.250 FPS (1536 SPF)
Bit depth : 16 bits
Compression mode : Lossy
Stream size : 136 MiB (21%)
Title : Original
Language : English
Service kind : Complete Main
Default : No
Forced : No

Text
ID : 4
Format : UTF-8
Codec ID : S_TEXT/UTF8
Codec ID/Info : UTF-8 Plain Text
Duration : 49 min 22 s
Bit rate : 56 b/s
Count of elements : 752
Stream size : 20.3 KiB (0%)
Language : English
Default : No
Forced : No
Скріншоти:



Запис/сихронізація: sergiyko


Бронзовий реліз (на рейтинг впливає 75% завантаженого)
 Трекер:    Зареєстрований   

Завантажити / скачати серіал українською



відео для новачків



 Зареєстрований:   2018-10-02 10:25
 Розмір:   5.93 GB 
 Оцінка серіалу:   10/10 (Голосів: 8)
   
bot 
робот


З нами з: 30.09.07
Востаннє: 26.05.05
Повідомлень: 21788

2018-10-01 17:57  
Тему перенесено з Телесеріали до форуму Анонси релізів


sergiyko.5

bot 
робот


З нами з: 30.09.07
Востаннє: 26.05.05
Повідомлень: 21788

2018-10-02 10:25  
Тему перенесено з Анонси релізів до форуму Телесеріали


sergiyko.5

Ваш часовий пояс: GMT + 2 Години

Нова тема   Відповісти