Геній: Пікассо / Genius: Picasso (Сезон 2) (2018) 1080p Ukr/Eng | Sub Eng

Нові коментарі

Нова тема   Відповісти
Автор Повідомлення
sergiyko.5 
VIP


З нами з: 25.02.16
Востаннє: 17.10.19
Повідомлень: 2665

2018-10-01 17:57  
Геній: Пікассо / Genius: Picasso (Сезон 2) (2018) 1080p Ukr/Eng | Sub Eng


Геній: Пікассо / Genius: Picasso (Сезон 2) (2018) 1080p Ukr/Eng | Sub Eng

Жанр: біографічний, драма, історичний
Країна: США
Кінокомпанія: EUE / Sokolow, Fox 21 Television Studios, Imagine Television, OddLot Entertainment
Режисер: Кевін Гукс, Мінкі Спіро, Рон Говард
Актори: Антоніо Бандерас, Роберт Шіен, Клеманс Поезі, Поппі Делевінь.

Сюжет:
Генії. Пікассо – це 10-ти серійний фільм, що розповідає нам справжню історію життя одного з найвпливовіших художників ХХ століття.

Захоплюючим серіал робить динамічний та нелінійний сюжет, що не має хронологічного порядку, який зазвичай притаманний для біографічних серіалів. Тому під час перегляду ми часто будемо переноситись з юності в старість Пікассо і навпаки, щоб краще зрозуміти вчинки генія.




Тривалість: 1 серія: 50:12 (цілком серій: 10)
Якість:

Відео: кодек: розмір кадру: 1920 x 960 бітрейт: 7900 кб/с
Аудіо # 1: мова: українська переклад: багатоголосий закадровий кодек: 2.0 бітрейт: 192 кб/с
Озвучення:
Аудіо # 2: мова: англійська переклад: оригінал кодек: 5.1 бітрейт: 384 кб/с
Субтитри: мова: англійська тип: програмні (м'які) формат: *.srt
Перелік серій
01. Picasso: Chapter One
02. Picasso: Chapter Two
03. Picasso: Chapter Three
04. Picasso: Chapter Four
05. Picasso: Chapter Five
06. Picasso: Chapter Six
07. Picasso: Chapter Seven
08. Picasso: Chapter Eight
09. Picasso: Chapter Nine
10. Picasso: Chapter Ten
Про файл:
General
Unique ID : 266692434740115721660728906063508223504 (0xC8A31837C14347DAEC887D3DEF793610)
Complete name : D:\Torrents\FILMS\Genius Season 2 1080p\Genius.S02E01.Picasso.Chapter.One.1080p..Ukr.Eng.
Format :
Format version : Version 4 / Version 2
File size : 3.03 GiB
Duration : 50 min 12 s
Overall bit rate mode : Variable
Overall bit rate : 8 647 kb/s
Movie name : Genius Season 2 1080p by sergiyko
Encoded date : UTC 2018-10-01 14:04:43
Writing application : v27.0.0 ('Metropolis') 64-bit
Writing library : libebml v1.3.6 + v1.4.9
Cover : Yes
Attachments : cover.jpg

Video
ID : 1
Format : AVC
Format/Info : Advanced Video Codec
Format profile : [email protected]
Format settings : CABAC / 4 Ref Frames
Format settings, CABAC : Yes
Format settings, ReFrames : 4 frames
Codec ID : V_MPEG4/ISO/AVC
Duration : 50 min 12 s
Bit rate mode : Variable
Bit rate : 8 068 kb/s
Maximum bit rate : 15.0 Mb/s
Width : 1 920 pixels
Height : 960 pixels
Display aspect ratio : 2.000
Frame rate mode : Constant
Frame rate : 23.976 (24000/1001) FPS
Color space : YUV
Chroma subsampling : 4:2:0
Bit depth : 8 bits
Scan type : Progressive
Bits/(Pixel*Frame) : 0.183
Stream size : 2.83 GiB (93%)
Title : Genius S02E01 Picasso Chapter One
Language : English
Default : Yes
Forced : No
Color range : Limited
Color primaries : BT.709
Transfer characteristics : BT.709
Matrix coefficients : BT.709

Audio #1
ID : 2
Format : AC-3
Format/Info : Audio Coding 3
Codec ID : A_AC3
Duration : 50 min 11 s
Bit rate mode : Constant
Bit rate : 192 kb/s
Channel(s) : 2 channels
Channel positions : Front: L R
Sampling rate : 48.0 kHz
Frame rate : 31.250 FPS (1536 SPF)
Bit depth : 16 bits
Compression mode : Lossy
Stream size : 68.9 MiB (2%)
Title : MOV 2ch | NG
Language : Ukrainian
Service kind : Complete Main
Default : Yes
Forced : Yes

Audio #2
ID : 3
Format : AC-3
Format/Info : Audio Coding 3
Codec ID : A_AC3
Duration : 50 min 11 s
Bit rate mode : Constant
Bit rate : 384 kb/s
Channel(s) : 6 channels
Channel positions : Front: L C R, Side: L R, LFE
Sampling rate : 48.0 kHz
Frame rate : 31.250 FPS (1536 SPF)
Bit depth : 16 bits
Compression mode : Lossy
Stream size : 138 MiB (4%)
Title : Original
Language : English
Service kind : Complete Main
Default : No
Forced : No

Text
ID : 4
Format : UTF-8
Codec ID : S_TEXT/UTF8
Codec ID/Info : UTF-8 Plain Text
Duration : 50 min 3 s
Bit rate : 65 b/s
Count of elements : 843
Stream size : 23.8 KiB (0%)
Language : English
Default : No
Forced : No
Скріншоти:



Запис/сихронізація: sergiyko


Бронзовий реліз (на рейтинг впливає 75% завантаженого)
 Трекер:    Зареєстрований   

Завантажити / скачати серіал українською



відео для новачків



 Зареєстрований:   2018-10-01 17:57
 Розмір:   30.09 GB 
 Оцінка серіалу:   9.2/10 (Голосів: 5)
   
Ваш часовий пояс: GMT + 2 Години

Нова тема   Відповісти