Ми купили зоопарк / We Bought a Zoo (2011) AVC Ukr/Eng | Sub Ukr/Eng

Нові коментарі

Нова тема   Відповісти
Автор Повідомлення
staf777 
Відео Гуртом - підтримка та поширення
Відео Гуртом - підтримка та поширення


З нами з: 16.11.16
Востаннє: 02.07.20
Повідомлень: 3784

2018-10-01 16:19  
Ми купили зоопарк / We Bought a Zoo (2011) AVC Ukr/Eng | Sub Ukr/Eng

Ми купили зоопарк / We Bought a Zoo (2011) AVC Ukr/Eng | Sub Ukr/Eng


Жанр: комедія, драма, сімейний
Країна: США



Кінокомпанія: Twentieth Century Fox Film Corporation, LBI Entertainment, Vinyl Films
Режисер: Камерон Кроу
Актори: Метт Деймон, Скарлет Йохансон, Томас Хейден Чьорч, Колін Форд, Меггі Елізабет Джонс

Сюжет:
Нормальні люди зазвичай вкладають гроші в дорогоцінні метали, акції, нерухомість або, зрештою, просто в банк. Але Бенджамін Мі пішов іншим шляхом і на всі гроші купив... занедбаний зоопарк з двома сотнями екзотичних тварин. І почалося у сімейства Мі зовсім інше життя, не життя, а малина...


Тривалість: 02:03:54
Якість: AVC
Відео:
кодек:
розмір кадру: 920x496
бітрейт: 1750 кб/с

Аудіо # 1:
мова: українська
переклад: професійний дубльований
кодек: 5.1
бітрейт: 448 кб/с

Аудіо # 2:
мова: англійська
переклад: оригінал
кодек: 5.1
бітрейт: 384 кб/с

Джерело озвучення:


Субтитри:(Full, Forced)
мова: українська
тип: програмні (м'які)
формат: *.srt

Субтитри:(Full, SDH)
мова: англійська
тип: програмні (м'які)
формат: *.srt





MI
General
Unique ID : 148757450886359085224713020543928000784 (0x6FE9A495D55570107A1D4BEBC8026110)
Complete name : N:\We Bought a Zoo (2011) AVC [UKR_ENG] [Hurtom].
Format :
Format version : Version 4 / Version 2
File size : 2.24 GiB
Duration : 2 h 3 min
Overall bit rate : 2 584 kb/s
Movie name : We Bought a Zoo (2011) AVC [UKR_ENG] [Hurtom]
Encoded date : UTC 2018-10-01 13:00:18
Writing application : v24.0.0 ('Beyond The Pale') 64-bit
Writing library : libebml v1.3.6 + v1.4.9
Cover : Yes
Attachments : cover.jpg

Video
ID : 1
Format : AVC
Format/Info : Advanced Video Codec
Format profile : [email protected]
Format settings : CABAC / 11 Ref Frames
Format settings, CABAC : Yes
Format settings, ReFrames : 11 frames
Codec ID : V_MPEG4/ISO/AVC
Duration : 2 h 3 min
Bit rate : 1 750 kb/s
Width : 920 pixels
Height : 496 pixels
Display aspect ratio : 1.85:1
Original display aspect rat : 1.85:1
Frame rate mode : Constant
Frame rate : 23.976 (24000/1001) FPS
Color space : YUV
Chroma subsampling : 4:2:0
Bit depth : 8 bits
Scan type : Progressive
Bits/(Pixel*Frame) : 0.160
Stream size : 1.51 GiB (68%)
Title : ZOO.2011.D...potroks
Writing library : core 116 r2019M 9cc407d
Encoding settings : cabac=1 / ref=12 / deblock=1:-3:-3 / analyse=0x3:0x133 / me=umh / subme=9 / psy=1 / psy_rd=1.00:0.00 / mixed_ref=1 / me_range=48 / chroma_me=1 / trellis=1 / 8x8dct=1 / cqm=0 / deadzone=21,13 / fast_pskip=0 / chroma_qp_offset=-2 / threads=8 / sliced_threads=0 / nr=0 / decimate=1 / interlaced=0 / bluray_compat=0 / constrained_intra=0 / bframes=8 / b_pyramid=1 / b_adapt=2 / b_bias=0 / direct=3 / weightb=1 / open_gop=0 / weightp=2 / keyint=230 / keyint_min=23 / scenecut=40 / intra_refresh=0 / rc_lookahead=100 / rc=2pass / mbtree=1 / bitrate=1750 / ratetol=1.0 / qcomp=0.60 / qpmin=10 / qpmax=53 / qpstep=4 / cplxblur=20.0 / qblur=0.7 / ip_ratio=1.40 / aq=1:1.20
Language : English
Default : Yes
Forced : No

Audio #1
ID : 2
Format : AC-3
Format/Info : Audio Coding 3
Codec ID : A_AC3
Duration : 2 h 3 min
Bit rate mode : Constant
Bit rate : 448 kb/s
Channel(s) : 6 channels
Channel positions : Front: L C R, Side: L R, LFE
Sampling rate : 48.0 kHz
Frame rate : 31.250 FPS (1536 SPF)
Bit depth : 16 bits
Compression mode : Lossy
Stream size : 397 MiB (17%)
Title : [UA-DUB]
Language : Ukrainian
Service kind : Complete Main
Default : Yes
Forced : Yes

Audio #2
ID : 5
Format : AC-3
Format/Info : Audio Coding 3
Codec ID : A_AC3
Duration : 2 h 3 min
Bit rate mode : Constant
Bit rate : 384 kb/s
Channel(s) : 6 channels
Channel positions : Front: L C R, Side: L R, LFE
Sampling rate : 48.0 kHz
Frame rate : 31.250 FPS (1536 SPF)
Bit depth : 16 bits
Compression mode : Lossy
Stream size : 340 MiB (15%)
Title : Original
Language : English
Service kind : Complete Main
Default : No
Forced : No

Text #1
ID : 3
Format : UTF-8
Codec ID : S_TEXT/UTF8
Codec ID/Info : UTF-8 Plain Text
Duration : 1 h 42 min
Bit rate : 0 b/s
Count of elements : 15
Stream size : 684 Bytes (0%)
Title : Forced
Language : Ukrainian
Default : Yes
Forced : Yes

Text #2
ID : 4
Format : UTF-8
Codec ID : S_TEXT/UTF8
Codec ID/Info : UTF-8 Plain Text
Duration : 2 h 3 min
Bit rate : 83 b/s
Count of elements : 1696
Stream size : 75.7 KiB (0%)
Title : Full
Language : Ukrainian
Default : No
Forced : No

Text #3
ID : 6
Format : UTF-8
Codec ID : S_TEXT/UTF8
Codec ID/Info : UTF-8 Plain Text
Duration : 2 h 3 min
Bit rate : 60 b/s
Count of elements : 1821
Stream size : 54.6 KiB (0%)
Title : SDH
Language : English
Default : No
Forced : No

Text #4
ID : 7
Format : UTF-8
Codec ID : S_TEXT/UTF8
Codec ID/Info : UTF-8 Plain Text
Duration : 2 h 2 min
Bit rate : 60 b/s
Count of elements : 1697
Stream size : 54.4 KiB (0%)
Title : Full
Language : English
Default : No
Forced : No
Джерело: &
Особиста оцінка: 0 - не дивився
Ми купили зоопарк / We Bought a Zoo (2011) AVC Ukr/Eng | Sub Ukr/Eng

Ми купили зоопарк / We Bought a Zoo (2011) AVC Ukr/Eng | Sub Ukr/Eng


 Трекер:    Зареєстрований   

Завантажити / скачати фільм українською



відео для новачків



 Зареєстрований:   2018-10-01 16:19
 Розмір:   2.24 GB 
 Оцінка фільму:   9.2/10 (Голосів: 35)
   
t850 
VIP


З нами з: 03.10.12
Востаннє: 07.12.19
Повідомлень: 272

2018-10-02 20:19  
Не трешова комедія, зірок з неба не хапає також, на один раз.
R0STEFAN 
Новенький


З нами з: 05.12.11
Востаннє: 02.07.20
Повідомлень: 11

2018-10-09 14:46  
Чудовий сімейний фільм. Дивився його разів 3 точно. І тепер ще раз захотів глянути.
Maters 
Відео Гуртом - підтримка та поширення
Відео Гуртом - підтримка та поширення


З нами з: 27.03.12
Востаннє: 02.07.20
Повідомлень: 2248

2020-04-26 16:29  
Я б не назвав цей фільм комедією взагалі. Там набагато більше драматичних моментів ніж смішних.
Ну хоча б:
- смерть дружини та матері для головних героїв, через що вони весь час в депресії,
- постійні сварки батька з сином, які не можуть знайти спільної мови
- купа скарг на малого, якого витурюють зі школи
- старість та смерть тигра, через яку теж сваряться власник і підлегла
- розчарована мала, на яку весь фільм чувак не звертає уваги
Але це все запечатали хеппі-ендом і от в нас вийшла комедія ))

Ваш часовий пояс: GMT + 2 Години

Нова тема   Відповісти