Сусідка [Розширена версія] / The Girl Next Door [Unrated] (2004) 1080p H.265 Ukr/Eng | Sub Eng

Нові коментарі

Нова тема   Відповісти
Автор Повідомлення
-Star-Lord- 
VIP


З нами з: 09.08.18
Востаннє: 13.12.18
Повідомлень: 342

2018-10-01 13:16  
Сусідка [Розширена версія] / The Girl Next Door [Unrated] (2004) 1080p H.265 Ukr/Eng | Sub Eng

Сусідка [Розширена версія] / The Girl Next Door [Unrated] (2004) 1080p H.265 Ukr/Eng | Sub Eng


Жанр: мелодрама, комедія, молодіжний
Країна: США



Кінокомпанія: Regency Enterprises, New Regency Pictures, Daybreak, Epsilon Motion Pictures
Режисер: Люк Ґрінфілд / Luke Greenfield
Актори: Еміль Хірш / Emile Hirsch, Еліша Катберт / Elisha Cuthbert, Тімоті Оліфант / Timothy Olyphant, Джеймс Рімар / James Remar, Кріс Маркет / Chris Marquette, Пол Дано / Paul Dano, Тімоті Боттомс / Timothy Bottoms, Донна Баллок / Donna Bullock, Джейкоб Янг / Jacob Young, Олівія Вайлд / Olivia Wilde та інші

Сюжет:
Старшокласник Метью, який був найкращим учнем школи, мріяв про кар'єру політика. Він навіть збирав благодійні кошти для одного талановитого учня з Камбоджі, щоб той міг приїхати навчатися до Америки. Метью був першим претендентом на отримання стипендії для вступу до коледжу. І все було б добре, якби одного разу він не помітив, що у нього з'явилася нова сусідка, невимовно вродлива 19-річна блондинка Деніель. Між ними розгорається неймовірна дружба, Метью почуває себе на сьомому небі від щастя і врешті розуміє, що закохався у неї.

Але несподівано все ускладнюється, бо виявляється, що Деніел - порнозірка...


Тривалість: 01:49:28 [Розширена версія / Unrated]
Якість:
Відео:
кодек: H.265 (HEVC)
розмір кадру: 1916 х 1040
бітрейт: 6 702 кб/с
бітова глибина: 10 біт
Увага! Перед завантаженням переконайтесь, що ваш пристрій відтворення (та/або ПЗ) підтримує H.265 (HEVC)

Аудіо # 1:
мова: українська
переклад: багатоголосий закадровий
кодек: 2.0
бітрейт: 192 кб/с
примітка: епізоди розширеної версії без українського озвучення, на них присутні форсовані субтитри

Аудіо # 2:
мова: англійська
переклад: оригінал
кодек: 5.1
бітрейт: 1 509 кб/с

Субтитри # 1:
мова: українська (Forced, на неозвучені епізоди розширеної версії)
тип: програмні (м'які)
формат: *.srt

Субтитри # 2:
мова: англійська (Full)
тип: програмні (м'які)
формат: *.srt


Info
Код:
General
Unique ID                                : 151410875682789435486838448454747465929 (0x71E8AC873910166FB8B2EF767A6AA8C9)
Complete name                            : F:\Video\The Girl Next Door [Unrated] (2004) 1080p H.265 [UKR_ENG].
Format                                   :
Format version                           : Version 4 / Version 2
File size                                : 6.43 GiB
Duration                                 : 1 h 49 min
Overall bit rate                         : 8 406 kb/s
Movie name                               : The Girl Next Door [UNRATED] (2004)
Encoded date                             : UTC 2018-10-01 10:28:18
Writing application                      : v20.0.0 ('I Am The Sun') 32-bit
Writing library                          : libebml v1.3.5 + v1.4.8
Cover                                    : Yes
Attachments                              : cover.jpg

Video
ID                                       : 1
Format                                   : HEVC
Format/Info                              : High Efficiency Video Coding
Format profile                           : Main [email protected]@High
Codec ID                                 : V_MPEGH/ISO/HEVC
Duration                                 : 1 h 49 min
Bit rate                                 : 6 702 kb/s
Width                                    : 1 916 pixels
Height                                   : 1 040 pixels
Display aspect ratio                     : 1.85:1
Frame rate mode                          : Constant
Frame rate                               : 23.976 (24000/1001) FPS
Color space                              : YUV
Chroma subsampling                       : 4:2:0
Bit depth                                : 10 bits
Bits/(Pixel*Frame)                       : 0.140
Stream size                              : 5.13 GiB (80%)
Writing library                          : x265 2.8+19-bcdc610cf5f0:[Windows][GCC 7.3.0][64 bit] 10bit
Encoding settings                        : cpuid=1111039 / frame-threads=13 / numa-pools=12 / wpp / no-pmode / no-pme / no-psnr / no-ssim / log-level=3 / input-csp=1 / input-res=1916x1040 / interlace=0 / total-frames=0 / level-idc=51 / high-tier=1 / uhd-bd=0 / ref=3 / allow-non-conformance / no-repeat-headers / annexb / no-aud / no-hrd / info / hash=0 / no-temporal-layers / open-gop / min-keyint=24 / keyint=240 / gop-lookahead=0 / bframes=7 / b-adapt=2 / b-pyramid / bframe-bias=0 / rc-lookahead=40 / lookahead-slices=6 / scenecut=40 / radl=0 / no-intra-refresh / ctu=64 / min-cu-size=8 / rect / amp / max-tu-size=32 / tu-inter-depth=1 / tu-intra-depth=1 / limit-tu=0 / rdoq-level=0 / dynamic-rd=0.00 / no-ssim-rd / signhide / no-tskip / nr-intra=0 / nr-inter=0 / no-constrained-intra / no-strong-intra-smoothing / max-merge=2 / limit-refs=3 / no-limit-modes / me=3 / subme=7 / merange=57 / temporal-mvp / weightp / no-weightb / no-analyze-src-pics / deblock=-3:-3 / no-sao / no-sao-non-deblock / rd=3 / no-early-skip / rskip / no-fast-intra / no-tskip-fast / no-cu-lossless / no-b-intra / no-splitrd-skip / rdpenalty=0 / psy-rd=2.00 / psy-rdoq=0.00 / no-rd-refine / no-lossless / cbqpoffs=0 / crqpoffs=0 / rc=crf / crf=19.0 / qcomp=0.70 / qpstep=4 / stats-write=0 / stats-read=0 / vbv-maxrate=160000 / vbv-bufsize=160000 / vbv-init=0.9 / crf-max=0.0 / crf-min=0.0 / ipratio=1.40 / pbratio=1.30 / aq-mode=1 / aq-strength=1.00 / cutree / zone-count=0 / no-strict-cbr / qg-size=32 / no-rc-grain / qpmax=69 / qpmin=0 / no-const-vbv / sar=1 / overscan=0 / videoformat=5 / range=0 / colorprim=1 / transfer=1 / colormatrix=1 / chromaloc=0 / display-window=0 / max-cll=0,0 / min-luma=0 / max-luma=1023 / log2-max-poc-lsb=8 / vui-timing-info / vui-hrd-info / slices=1 / no-opt-qp-pps / no-opt-ref-list-length-pps / no-multi-pass-opt-rps / scenecut-bias=0.05 / no-opt-cu-delta-qp / no-aq-motion / no-hdr / no-hdr-opt / no-dhdr10-opt / no-idr-recovery-sei / analysis-reuse-level=5 / scale-factor=0 / refine-intra=0 / refine-inter=0 / refine-mv=0 / no-limit-sao / ctu-info=0 / no-lowpass-dct / refine-mv-type=0 / copy-pic=1 / max-ausize-factor=1.0 / no-dynamic-refine / no-single-sei
Default                                  : Yes
Forced                                   : No
Color range                              : Limited
Color primaries                          : BT.709
Transfer characteristics                 : BT.709
Matrix coefficients                      : BT.709

Audio #1
ID                                       : 2
Format                                   : AC-3
Format/Info                              : Audio Coding 3
Codec ID                                 : A_AC3
Duration                                 : 1 h 49 min
Bit rate mode                            : Constant
Bit rate                                 : 192 kb/s
Channel(s)                               : 2 channels
Channel positions                        : Front: L R
Sampling rate                            : 48.0 kHz
Frame rate                               : 31.250 FPS (1536 SPF)
Bit depth                                : 16 bits
Compression mode                         : Lossy
Stream size                              : 150 MiB (2%)
Title                                    : MVO [Novyj] 2.0 192 kbps [Hurtom-voin747]
Language                                 : Ukrainian
Service kind                             : Complete Main
Default                                  : Yes
Forced                                   : No

Audio #2
ID                                       : 3
Format                                   :
Format/Info                              : Digital Theater Systems
Codec ID                                 : A_DTS
Duration                                 : 1 h 49 min
Bit rate mode                            : Constant
Bit rate                                 : 1 509 kb/s
Channel(s)                               : 6 channels
Channel positions                        : Front: L C R, Side: L R, LFE
Sampling rate                            : 48.0 kHz
Frame rate                               : 93.750 FPS (512 SPF)
Bit depth                                : 24 bits
Compression mode                         : Lossy
Stream size                              : 1.15 GiB (18%)
Title                                    : Original 5.1 1536 Kbps
Language                                 : English
Default                                  : No
Forced                                   : No

Text #1
ID                                       : 4
Format                                   : UTF-8
Codec ID                                 : S_TEXT/UTF8
Codec ID/Info                            : UTF-8 Plain Text
Duration                                 : 1 h 27 min
Bit rate                                 : 1 b/s
Count of elements                        : 21
Stream size                              : 1.04 KiB (0%)
Title                                    : Ukr forced
Language                                 : Ukrainian
Default                                  : Yes
Forced                                   : Yes

Text #2
ID                                       : 5
Format                                   : UTF-8
Codec ID                                 : S_TEXT/UTF8
Codec ID/Info                            : UTF-8 Plain Text
Duration                                 : 1 h 42 min
Bit rate                                 : 53 b/s
Count of elements                        : 1292
Stream size                              : 40.1 KiB (0%)
Language                                 : English
Default                                  : No
Forced                                   : No

Menu
00:00:00.000                             : en:Main Titles
00:03:14.820                             : en:Blank Page
00:04:54.586                             : en:Prom Fever
00:07:25.153                             : en:Cutting Class
00:10:07.190                             : en:The Girl Next Door
00:15:11.077                             : en:Payback
00:21:10.186                             : en:Go With It
00:25:47.254                             : en:Matt's Girl
00:29:47.869                             : en:Porn Star
00:34:42.247                             : en:Being the Man
00:38:41.277                             : en:Kelly
00:45:05.870                             : en:Sex Ed
00:49:22.793                             : en:Pressing Flesh
00:55:30.077                             : en:Hot Directors
00:58:45.772                             : en:Believing
01:00:52.023                             : en:Squeezing Juice
01:05:16.454                             : en:Consequences
01:08:33.401                             : en:Trippin' Out
01:11:21.152                             : en:Moral Fiber
01:15:03.374                             : en:Zero Balance
01:18:32.249                             : en:Hatching a Plan
01:20:56.518                             : en:Senior Prom
01:23:44.228                             : en:Lights, Camera...
01:27:14.104                             : en:Action!
01:33:22.889                             : en:Being Crazy
01:35:40.902                             : en:Showtime
01:40:31.275                             : en:I'll Never Forget
01:43:49.390                             : en:End Titles
Скріншоти




Джерело:
Особиста оцінка: 10 - без зайвих вагань рекомендую всім!


Срібний реліз (на рейтинг впливає 50% завантаженого)
 Трекер:    Зареєстрований   

Завантажити / скачати фільм українською



відео для новачків



 Зареєстрований:   2018-10-01 13:16
 Розмір:   6.43 GB 
 Оцінка фільму:   9.9/10 (Голосів: 10)
   
Lucianenko 
Свій


З нами з: 09.07.16
Востаннє: 11.12.18
Повідомлень: 70

2018-11-30 15:35  
Фільм просто фантастика!Рекомендую всім хто хоче провести час на позитиві!
Прикро, що зараз дуже мало подібних фільмів, десь позникали наші сусідки...
Особиста оцінка 10/10, адже воно того варте!!! Ось що таке вірність переконанням!

Ваш часовий пояс: GMT + 2 Години

Нова тема   Відповісти