Людина з планети Земля / The Man from Earth (2007) 1080p H.265 Ukr/Eng | Sub Eng

Нові коментарі

Нова тема   Відповісти
Автор Повідомлення
-Star-Lord- 
Поважний учасник


З нами з: 09.08.18
Востаннє: 21.10.18
Повідомлень: 211

2018-10-01 13:53  
Людина з планети Земля / The Man from Earth (2007) 1080p H.265 Ukr/Eng | Sub Eng

Людина з планети Земля / The Man from Earth (2007) 1080p H.265 Ukr/Eng | Sub Eng


Жанр: драма, наукова фантастика
Країна: США



Кінокомпанія: Falling Sky Entertainment
Режисер: Річард Шенкмен (Richard Schenkman)
Актори: Дейвід Лі Сміт (David Lee Smith), Тоні Тодд (Tony Todd), Джон Біллінґслі (John Billingsley), Еллен Крофорд (Ellen Crawford), Анніка Петерсон (Annika Peterson), Вілліам Катт (William Katt)

Сюжет:
Незапланована вечірка на честь від'їзду професора Джона Олдмена перетворюється на таємничий допит після того, як він зізнається, що час над ним не владний, бо він ходить по Землі вже 14000 років.


Українською мовою озвучено студією Омікрон на замовлення HURTOM.COM за підтримки сайту Народний оглядач


Тривалість: 01:28:07
Якість: (Власний Rip)
Відео:
кодек: H.265 (HEVC)
розмір кадру: 1912 х 1080
бітрейт: 8 179 кб/с
бітова глибина: 10 біт
Увага! Перед завантаженням переконайтесь, що ваш пристрій відтворення (та/або ПЗ) підтримує H.265 (HEVC)

Аудіо # 1:
мова: українська
переклад: багатоголосий закадровий
кодек: 5.1
бітрейт: 640 кб/с

Аудіо # 2:
мова: англійська
переклад: оригінал
кодек: 5.1
бітрейт: 640 кб/с

Субтитри:
мова: англійська
тип: програмні (м'які)
формат: *.srt


Info
Код:
General
Unique ID                                : 148462956249975339068630029013963871125 (0x6FB0ECE0F23FF30F7E3DE523F2F19395)
Complete name                            : F:\Video\The Man From Earth (2007) 1080p H.265 [UKR_ENG].
Format                                   :
Format version                           : Version 4 / Version 2
File size                                : 5.87 GiB
Duration                                 : 1 h 27 min
Overall bit rate                         : 9 638 kb/s
Movie name                               : The Man from Earth (2007) - Rip by -Star-Lord-
Encoded date                             : UTC 2018-10-01 10:45:06
Writing application                      : v20.0.0 ('I Am The Sun') 32-bit
Writing library                          : libebml v1.3.5 + v1.4.8
Cover                                    : Yes
Attachments                              : Cover.jpg

Video
ID                                       : 1
Format                                   : HEVC
Format/Info                              : High Efficiency Video Coding
Format profile                           : Main [email protected]@High
Codec ID                                 : V_MPEGH/ISO/HEVC
Duration                                 : 1 h 27 min
Bit rate                                 : 8 355 kb/s
Width                                    : 1 912 pixels
Height                                   : 1 080 pixels
Display aspect ratio                     : 16:9
Frame rate mode                          : Constant
Frame rate                               : 23.976 (24000/1001) FPS
Color space                              : YUV
Chroma subsampling                       : 4:2:0
Bit depth                                : 10 bits
Bits/(Pixel*Frame)                       : 0.169
Stream size                              : 5.08 GiB (87%)
Title                                    : Rip by -Star-Lord-
Writing library                          : x265 2.8+19-bcdc610cf5f0:[Windows][GCC 7.3.0][64 bit] 10bit
Encoding settings                        : cpuid=1111039 / frame-threads=5 / numa-pools=4 / wpp / no-pmode / no-pme / no-psnr / no-ssim / log-level=3 / input-csp=1 / input-res=1912x1080 / interlace=0 / total-frames=0 / level-idc=51 / high-tier=1 / uhd-bd=0 / ref=5 / allow-non-conformance / no-repeat-headers / annexb / no-aud / no-hrd / info / hash=0 / no-temporal-layers / open-gop / min-keyint=23 / keyint=240 / gop-lookahead=0 / bframes=8 / b-adapt=2 / b-pyramid / bframe-bias=0 / rc-lookahead=45 / lookahead-slices=6 / scenecut=40 / radl=0 / no-intra-refresh / ctu=64 / min-cu-size=8 / no-rect / no-amp / max-tu-size=32 / tu-inter-depth=1 / tu-intra-depth=1 / limit-tu=0 / rdoq-level=0 / dynamic-rd=0.00 / no-ssim-rd / signhide / no-tskip / nr-intra=0 / nr-inter=0 / no-constrained-intra / no-strong-intra-smoothing / max-merge=2 / limit-refs=3 / no-limit-modes / me=3 / subme=7 / merange=57 / temporal-mvp / weightp / weightb / no-analyze-src-pics / deblock=-3:-3 / no-sao / no-sao-non-deblock / rd=3 / no-early-skip / rskip / no-fast-intra / no-tskip-fast / no-cu-lossless / no-b-intra / no-splitrd-skip / rdpenalty=0 / psy-rd=1.20 / psy-rdoq=0.00 / no-rd-refine / no-lossless / cbqpoffs=0 / crqpoffs=0 / rc=crf / crf=18.0 / qcomp=0.70 / qpstep=4 / stats-write=0 / stats-read=0 / vbv-maxrate=50000 / vbv-bufsize=50000 / vbv-init=0.9 / crf-max=0.0 / crf-min=0.0 / ipratio=1.40 / pbratio=1.30 / aq-mode=1 / aq-strength=1.00 / cutree / zone-count=0 / no-strict-cbr / qg-size=32 / no-rc-grain / qpmax=69 / qpmin=0 / no-const-vbv / sar=1 / overscan=0 / videoformat=5 / range=0 / colorprim=2 / transfer=2 / colormatrix=2 / chromaloc=0 / display-window=0 / max-cll=0,0 / min-luma=0 / max-luma=1023 / log2-max-poc-lsb=8 / vui-timing-info / vui-hrd-info / slices=1 / no-opt-qp-pps / no-opt-ref-list-length-pps / no-multi-pass-opt-rps / scenecut-bias=0.05 / no-opt-cu-delta-qp / no-aq-motion / no-hdr / no-hdr-opt / no-dhdr10-opt / no-idr-recovery-sei / analysis-reuse-level=5 / scale-factor=0 / refine-intra=0 / refine-inter=0 / refine-mv=0 / no-limit-sao / ctu-info=0 / no-lowpass-dct / refine-mv-type=0 / copy-pic=1 / max-ausize-factor=1.0 / no-dynamic-refine / no-single-sei
Language                                 : English
Default                                  : Yes
Forced                                   : No

Audio #1
ID                                       : 2
Format                                   : AC-3
Format/Info                              : Audio Coding 3
Codec ID                                 : A_AC3
Duration                                 : 1 h 27 min
Bit rate mode                            : Constant
Bit rate                                 : 640 kb/s
Channel(s)                               : 6 channels
Channel positions                        : Front: L C R, Side: L R, LFE
Sampling rate                            : 48.0 kHz
Frame rate                               : 31.250 FPS (1536 SPF)
Bit depth                                : 16 bits
Compression mode                         : Lossy
Stream size                              : 399 MiB (7%)
Title                                    : MVO Omikron studio for Hurtom
Language                                 : Ukrainian
Service kind                             : Complete Main
Default                                  : Yes
Forced                                   : No

Audio #2
ID                                       : 3
Format                                   : AC-3
Format/Info                              : Audio Coding 3
Codec ID                                 : A_AC3
Duration                                 : 1 h 27 min
Bit rate mode                            : Constant
Bit rate                                 : 640 kb/s
Channel(s)                               : 6 channels
Channel positions                        : Front: L C R, Side: L R, LFE
Sampling rate                            : 48.0 kHz
Frame rate                               : 31.250 FPS (1536 SPF)
Bit depth                                : 16 bits
Compression mode                         : Lossy
Stream size                              : 399 MiB (7%)
Title                                    : Original DD 5.1
Language                                 : English
Service kind                             : Complete Main
Default                                  : No
Forced                                   : No

Text
ID                                       : 4
Format                                   : UTF-8
Codec ID                                 : S_TEXT/UTF8
Codec ID/Info                            : UTF-8 Plain Text
Duration                                 : 1 h 21 min
Bit rate                                 : 91 b/s
Count of elements                        : 1938
Stream size                              : 54.2 KiB (0%)
Language                                 : English
Default                                  : No
Forced                                   : No

Menu
00:00:00.000                             : en:Chapter 1
00:06:41.267                             : en:Chapter 2
00:11:54.168                             : en:Chapter 3
00:17:32.301                             : en:Chapter 4
00:24:40.434                             : en:Chapter 5
00:29:58.302                             : en:Chapter 6
00:33:27.369                             : en:Chapter 7
00:37:19.669                             : en:Chapter 8
00:40:34.669                             : en:Chapter 9
00:45:29.203                             : en:Chapter 10
00:51:31.970                             : en:Chapter 11
00:59:21.604                             : en:Chapter 12
01:05:37.838                             : en:Chapter 13
01:10:13.138                             : en:Chapter 14
01:16:10.772                             : en:Chapter 15
01:22:50.872                             : en:Chapter 16
01:27:01.005                             : en:Chapter 17
Скріншоти



Порівняння джерела з ріпом

Джерело:
Особиста оцінка: 10 - без зайвих вагань рекомендую всім!


Авторський реліз (завантажувати можна без реєстрації)
 Трекер:    Зареєстрований   

Завантажити / скачати фільм українською



відео для новачків



 Зареєстрований:   2018-10-01 14:00
 Розмір:   5.87 GB 
 Оцінка фільму:   7.8/10 (Голосів: 9)
   
star-space 
Новенький


З нами з: 22.12.17
Востаннє: 22.10.18
Повідомлень: 13

2018-10-03 22:21  
Відеоряд наче DVB-T2 подивився. Як таке розрішення взагалі можна назвати 1080р, якщо картинка навіть до 720р не дотягує. Якесь роздуте SD. Сам зміст фільму явно не для дітей, багато філософських думок і майже всі балачки пройшли в одній кімнаті. Єдине що приємно здивувало, це фінальні титри, вони дійсно можуть називатися 1080р.
-Star-Lord- 
Поважний учасник


З нами з: 09.08.18
Востаннє: 21.10.18
Повідомлень: 211

2018-10-03 22:30  
star-space
Фільм знімали на калькулятор, тому така якість. Та головне в цьому фільмі, аж ніяк не відеоряд, а сам зміст.

EvGaS 
Відео Гуртом - субтитрування
Відео Гуртом - субтитрування


З нами з: 27.02.12
Востаннє: 21.10.18
Повідомлень: 5001

2018-10-04 16:39  
Запустив поглянути — воно страшне як смерть, гірш навіть за VHS.
Те, що його знімали на казна що — не виправдовує мазаного реріпу з апскейлу ДВД (видно шуми на полях та лінію зміни яскравості на тім же ж горизонті — типова цифрова хвороба дівідюків), бо навіть Шестиструнний Самурай, як кіно, відзняте студентами на просрочену кіноплівку (тобто, найнайгірший варіант) — й той вигляда чіткіш. Тому тут проблема оцифрованого носія, а не камери чи бобіни, бо кидати таке на блюр не кажу про якийсь ремастеринг, а хоча б якоїсь обробки замість натягування зображення на глобус з кривими барвами …такий маркетинг, на тих, хто замість ДВД понадіється подивитись. Краще знайдіть ДВД, й ріпніть з нього напряму за цей кривенький апскейл пущений на БД, є ймовірність що на вихлопі буде щось краще. Ну й -3-3 до деблоку тут теж своєї шкоди завдали. Для 265-го він чутливіший десь утричі за 264-го, тобто, краще за одиницю (±1) не заходити.

-Star-Lord- 
Поважний учасник


З нами з: 09.08.18
Востаннє: 21.10.18
Повідомлень: 211

2018-10-04 20:26  
EvGaS
Можете дати посилання на опис парметрів кодування 265 кодеку? Хотілося б детальніше почитати.
Або ж самі накидайте невеликий пост, в двох словах.

krigg070 
Відео Гуртом - фільмокрай
Відео Гуртом - фільмокрай


З нами з: 29.10.14
Востаннє: 22.10.18
Повідомлень: 1366

2018-10-04 20:51  
EvGaS
Цікаво, яку якість ти хотів побачити, коли фільм знято на Panasonic AG-DVX100, яка записує максимум в 480i/60 (NTSC), 480p/24fps, 480p/30fps?
Ось скріншоти з блюрика: http://www.imagebam.com/gallery/ojfbfk4j148p99e39v5ipcay0uaam51a

Anоnymous 
Поважний учасник


З нами з: 25.08.18
Востаннє: 22.10.18
Повідомлень: 227

2018-10-04 22:29  
А що це за такий фільм? чому у нього такий рейтинг? чому його зняли на дешманську камеру?
EvGaS 
Відео Гуртом - субтитрування
Відео Гуртом - субтитрування


З нами з: 27.02.12
Востаннє: 21.10.18
Повідомлень: 5001

2018-10-05 05:42  
-Star-Lord- написано:

Можете дати посилання на опис парметрів кодування 265 кодеку? Хотілося б детальніше почитати.
Або ж самі накидайте невеликий пост, в двох словах.

В описах цього немає, сам з цим зіткнувся кілька разів, навіть на деблоці -2-1 в одній конвертованій анімації на 720 вертикалки куби пішли драбиною, як порівнював зображення на паузі зі збільшенням.
У випадку цього кіна помітно крім мазанини ще й блоки, тут варто було поекспериментувати з відрізками перед ріпом, бо, можливо, позитивний деблок навпаки б покращив суб’єктивно зображення на приємніше, таке інколи траплялося з деякою неякісною анімацією (фільмів у 265-му практично не гнав).

krigg070 написано:
Цікаво, яку якість ти хотів побачити

480i/60 (NTSC), 480p/24fps, 480p/30fps
рідними як є на ДВД, або ремастер, якщо це БД. Бо навіть домашніми відео конвертерами люди можуть виправити баланс білого, кольорову палітру, прибрати рейнбов/веселку, та зробити кращий за, кхм, ось «це» апскейл, у якому не буде рінгу, чи як професійно той артефакт зі зміною яскравості пікселю на межі в ДВД зветься. Камеру подививсь: в неї цілком пристойний розміром об’єктив (+вона позиціонується виробником як «професійна», що має під собою мати певні мінімальні стандарти якості зображення), для того щоб захопити вдосталь світла, принаймні, порівняно з побутовими дешевими ручними камерами з маленьким об’єктивом на зашумлену матрицю малої площі. Скажу так: в мене з викривленнями зображення подібної кількості недоброго, видавала камера з мобільного телефону середини 2000-их, у якого було 0,3 мегапікселі й дрібне вічко, площею на порядки менш за ту панасонівську камеру. Навіть якщо в неї мала чіткість й режим запису на касету — вона б мала значно активніше й краще використовувати кожного пікселя через більшу кількість світла й оптику.
З.І. Скріншоти з блюрику ті — теж кривий апскейл з ДВД, наскільки побачив з артефакту, який сумнівно б був записаний на касету. Просто накинули згори текст/титри й перевидали дівідюк, окремо під бедешку ніхто відео не оцифровував з носія. Принаймні, так воно мені виглядає.

Ваш часовий пояс: GMT + 2 Години

Нова тема   Відповісти