Еволюція / Evolution (2001) 720p 2xUkr/Eng

Нові коментарі

Нова тема   Відповісти
Автор Повідомлення
Anonymous 







2018-10-01 08:48  
Еволюція / Evolution (2001) 720p 2xUkr/Eng

Еволюція / Evolution (2001) 720p 2xUkr/Eng


Жанр: комедія, фантастика
Країна: США



Кінокомпанія: Columbia Pictures Corporation, DreamWorks, Montecito Picture Company
Режисер: Айвен Рейтман
Актори: Девід Духовни, Джуліанн Мур, Шон Вільям Скотт, Орландо Джонс, Ден Ейкройд

Сюжет:
Професор-біолог Кейн і його колега по університету геолог Блок, досліджуючи зразки метеорита, що впав в пустелі Арізони, раптом виявляють в них величезну кількість форм живих одноклітинних організмів. Ріст і розмноження мікроорганізмів відбувається так швидко, що це явище не піддається жодному науковому поясненню. Якщо на Землі для розвитку подібних організмів знадобилися б мільярди років, то еволюція нових форм життя, виявлених на метеориті, відбувається протягом декількох.


Тривалість: 01:41:40
Якість: 720p
Відео:
кодек:
розмір кадру: 1280х720
бітрейт: 4095 кб/с

Аудіо # 1:
мова: українська
переклад: багатоголосий закадровий , ,
кодек: 2.0
бітрейт: 192 кб/с

Аудіо # 2:
мова: українська
переклад: багатоголосий закадровий
кодек: 2.0
бітрейт: 192 кб/с

Аудіо # 3:
мова: англійська
переклад: оригінал
кодек: 5.1
бітрейт: 384 кб/с
Info
General
Unique ID : 189729073993970826307588185991354825280 (0x8EBC7D90EC0B8045937DE0A733BCBA40)
Format :
Format version : Version 4 / Version 2
File size : 3.52 GiB
Duration : 1 h 41 min
Overall bit rate : 4 955 kb/s
Encoded date : UTC 2018-10-01 06:42:25
Writing application : v6.1.0 ('Old Devil') built on Mar 4 2013 09:10:42
Writing library : libebml v1.3.0 + v1.4.0

Video
ID : 1
Format : AVC
Format/Info : Advanced Video Codec
Format profile : [email protected]
Format settings : 2 Ref Frames
Format settings, CABAC : No
Format settings, ReFrames : 2 frames
Codec ID : V_MPEG4/ISO/AVC
Duration : 1 h 41 min
Bit rate : 4 088 kb/s
Width : 1 280 pixels
Height : 720 pixels
Display aspect ratio : 16:9
Frame rate mode : Constant
Frame rate : 23.976 FPS
Color space : YUV
Chroma subsampling : 4:2:0
Bit depth : 8 bits
Scan type : Progressive
Bits/(Pixel*Frame) : 0.185
Stream size : 2.90 GiB (83%)
Language : English
Default : Yes
Forced : No
Color range : Limited
Color primaries : BT.709
Transfer characteristics : BT.709
Matrix coefficients : BT.709

Audio #1
ID : 2
Format : AC-3
Format/Info : Audio Coding 3
Codec ID : A_AC3
Duration : 1 h 41 min
Bit rate mode : Constant
Bit rate : 192 kb/s
Channel(s) : 2 channels
Channel positions : Front: L R
Sampling rate : 48.0 kHz
Frame rate : 31.250 FPS (1536 SPF)
Bit depth : 16 bits
Compression mode : Lossy
Stream size : 140 MiB (4%)
Title : UKR (ICTV, Новий, ТРК "Україна")
Language : Ukrainian
Service kind : Complete Main
Default : Yes
Forced : Yes

Audio #2
ID : 3
Format : AC-3
Format/Info : Audio Coding 3
Codec ID : A_AC3
Duration : 1 h 41 min
Bit rate mode : Constant
Bit rate : 192 kb/s
Channel(s) : 2 channels
Channel positions : Front: L R
Sampling rate : 48.0 kHz
Frame rate : 31.250 FPS (1536 SPF)
Bit depth : 16 bits
Compression mode : Lossy
Stream size : 140 MiB (4%)
Title : UKR (Paramount Comedy)
Language : Ukrainian
Service kind : Complete Main
Default : No
Forced : No

Audio #3
ID : 4
Format : AC-3
Format/Info : Audio Coding 3
Codec ID : A_AC3
Duration : 1 h 41 min
Bit rate mode : Constant
Bit rate : 384 kb/s
Channel(s) : 6 channels
Channel positions : Front: L C R, Side: L R, LFE
Sampling rate : 48.0 kHz
Frame rate : 31.250 FPS (1536 SPF)
Bit depth : 16 bits
Compression mode : Lossy
Stream size : 279 MiB (8%)
Title : Evolution.2001.720p..DD5.1.H264-FGT
Language : English
Service kind : Complete Main
Default : No
Forced : No

Menu
00:00:00.000 : en:Main Titile
00:04:49.000 : en:Meet Ira and Harry
00:08:00.000 : en:A Rock That bleeds
00:14:11.000 : en:Discovering Alien Life
00:16:59.000 : en:Wayne Flunks Out
00:17:54.000 : en:"We Came To Pick Up The Rock"
00:22:42.000 : en:Aliens At the Country Club
00:24:20.000 : en:Government Take over
00:30:03.000 : en:Deposing Dr. Ira Kane
00:33:55.000 : en:"It's In Me!"
00:42:00.000 : en:No Time For Lubricant
00:43:52.000 : en:Trouble On The Fairway
00:47:32.000 : en:Aliens Crawl Out
00:56:41.000 : en:"Great Googa Mooga!"
00:59:41.000 : en:Shopping At The Mall
01:07:14.000 : en:The Governor gets Bad News
01:11:00.000 : en:Fuzzy No Nosed Chimps Attack
01:15:40.000 : en:Heat Is The Catalyst
01:18:48.000 : en:How To Kill Them
01:22:40.000 : en:"Let's Shampoo Some Aliens!"
01:26:55.000 : en:A Jumbo Enema
01:35:52.000 : en:End Credits
Скріншоти









За українську доріжку №1 подяка п.: Bohdan237, Arsenfpu
За запис звуку з каналу Paramount Comedy дякуємо пану Neytreenor
За постер подяка п. zgryvus
Особиста подяка пану denixx за надану матеріальну допомогу на підтримку цього і майбутніх релізів.
Джерело:


Срібний реліз (на рейтинг впливає 50% завантаженого)
 Трекер:    Зареєстрований   

Завантажити / скачати фільм українською



відео для новачків



 Зареєстрований:   2018-10-01 08:48
 Розмір:   3.52 GB 
 Оцінка фільму:   9/10 (Голосів: 9)
   
Інші релізи
   Еволюція / Evolution (2001) D-TheaterRip Ukr/Eng Arsenfpu  6 / 0   1.67 GB   2017-12-07 21:53 
   Еволюція / Evolution (2001) D-TheaterRip 720p Ukr/Eng | Sub Eng Dim-ON  0 / 0   4.67 GB   2011-07-15 19:57 
   Еволюція / Evolution (2001) D-TheaterRip MAKAPOHHIK  3 / 0   1.46 GB   2010-04-06 11:01 
EvGaS 
Відео Гуртом - субтитрування
Відео Гуртом - субтитрування


З нами з: 27.02.12
Востаннє: 15.12.18
Повідомлень: 5100

2018-10-01 11:02  
Як комедія — зірок з неба не хапає.
Як пародія на хванташтишні хвільми та Холлівуд — цілком непогано, хоч й багато таких жартів напівприховані. Тік фанам кіно 70-90-их рр, усім іншим можна радити хіба що як нічого іншого подивитись, бо як ви не в темі, то й така тематична пародія буде нудною як спостерігання за ростом бадилля хріну.

leicheman 
Відео Гуртом - підтримка та поширення
Відео Гуртом - підтримка та поширення


З нами з: 03.07.14
Востаннє: 15.12.18
Повідомлень: 3003

2018-10-01 11:40  
Хіба вебка краще за d - theater?
Ваш часовий пояс: GMT + 2 Години

Нова тема   Відповісти