Коко до Шанель / Coco avant Chanel / Coco Before Chanel (2009) 1080p Ukr/Fra | Sub Eng

Нові коментарі

Нова тема   Відповісти
Автор Повідомлення
staf777 
Попереджень: 1
Попереджень: 1 


З нами з: 16.11.16
Востаннє: 13.12.18
Повідомлень: 1909

2018-09-30 22:09  
Коко до Шанель / Coco avant Chanel / Coco Before Chanel (2009) 1080p Ukr/Fra | Sub Eng



Альтернативні постери








Жанр: біографічний, драма
Країна: Франція, Бельгія



Кінокомпанія: Haut et Court, Ciné@, Warner Bros.
Режисер: Анн Фонтен / Anne Fontaine
Актори: Одрі Тоту / Audrey Tautou, Бенуа Пульворд / Benoît Poelvoorde, Алессандро Нівола / Alessandro Nivola, Марi Жиллен / Marie Gillain, Eммануeль Дево / Emmanuelle Devos, Режіс Руає / Régis Royer, Етьен Бартоломью / Etienne Bartholomeus, Ян Дюффа / Yan Duffas, Фабєн Беар / Fabien Béhar, Рош Лейбовічи / Roch Leibovici

Сюжет:
«Коко до Шанель» - екранізована біографія, що розповідає про легендарну особистість дизайнерки Коко Шанель. Сюжет сфокусований на часі, коли вона ще не була знаменитою законодавицею мод, що вдягла на жінку чоловічий костюм та маленьке чорне плаття, і звалася Габріелла Шанель.


Рейтинг MPAA: PG-13 - дітям до 13 років перегляд не бажаний
Вікова категорія: 12+

Тривалість: 01:50:11
Якість: 1080p
Відео:
кодек:
розмір кадру: 1920x820
бітрейт: 8819 кбіт/с

Аудіо # 1:
мова: українська
переклад: професійний дубльований
кодек: 2.0
бітрейт: 192 кбіт/с
Інформація про дубляж
Ролі дублювали: Одрі Тоту/Ґабріелла Коко Шанель — Юлія Перенчук, Михайло Тишин, Катерина Брайковська, Ольга Радчук, Андрій Федінчик, Бенуа Пульворд/Етьєн Бальзан — Дмитро Завадський, Людмила Ардельян та інші
Аудіо # 2:
мова: французька
переклад: оригінал
кодек: 5.1
бітрейт: 1510 кбіт/с

Субтитри:
мова: англійська
тип: програмні (м'які)
формат: *.srt
Info
Код:
General
Unique ID                   : 333281779104653478858384924528886706125 (0xFABBBC5F54A61FC2BDADF4E332886FCD)
Complete name               : N:\Майбутні релізи\Coco avant Chanel (2009) [Ukr,Fra sub.Eng] 1080p [Hurtom & HDClub].
Format                      :
Format version              : Version 4 / Version 2
File size                   : 8.10 GiB
Duration                    : 1 h 50 min
Overall bit rate            : 10.5 Mb/s
Movie name                  : Coco avant Chanel (2009) [Ukr,Fra sub.Eng] 1080p [Hurtom & HDClub]
Encoded date                : UTC 2018-10-01 11:57:46
Writing application         : v24.0.0 ('Beyond The Pale') 64-bit
Writing library             : libebml v1.3.6 + v1.4.9
Cover                       : Yes
Attachments                 : cover.jpg

Video
ID                          : 1
Format                      : AVC
Format/Info                 : Advanced Video Codec
Format profile              : [email protected]
Format settings             : CABAC / 5 Ref Frames
Format settings, CABAC      : Yes
Format settings, ReFrames   : 5 frames
Codec ID                    : V_MPEG4/ISO/AVC
Duration                    : 1 h 50 min
Bit rate                    : 8 819 kb/s
Width                       : 1 920 pixels
Height                      : 820 pixels
Display aspect ratio        : 2.35:1
Frame rate mode             : Constant
Frame rate                  : 23.976 FPS
Color space                 : YUV
Chroma subsampling          : 4:2:0
Bit depth                   : 8 bits
Scan type                   : Progressive
Bits/(Pixel*Frame)          : 0.234
Stream size                 : 6.79 GiB (84%)
Title                       : Release for HDCLUB
Writing library             : core 80 r1373M 4322f63
Encoding settings           : cabac=1 / ref=5 / deblock=1:-3:-3 / analyse=0x3:0x113 / me=umh / subme=9 / psy=1 / psy_rd=1.0:0.0 / mixed_ref=1 / me_range=32 / chroma_me=1 / trellis=2 / 8x8dct=1 / cqm=0 / deadzone=21,11 / fast_pskip=0 / chroma_qp_offset=-2 / threads=12 / sliced_threads=0 / nr=0 / decimate=0 / mbaff=0 / constrained_intra=0 / bframes=6 / b_pyramid=2 / b_adapt=2 / b_bias=0 / direct=3 / wpredb=1 / wpredp=2 / keyint=240 / keyint_min=24 / scenecut=40 / rc_lookahead=80 / rc=2pass / mbtree=1 / bitrate=8819 / ratetol=1.0 / qcomp=0.60 / qpmin=10 / qpmax=51 / qpstep=4 / cplxblur=20.0 / qblur=0.5 / ip_ratio=1.40 / aq=1:0.80
Language                    : English
Default                     : No
Forced                      : No

Audio #1
ID                          : 2
Format                      : AC-3
Format/Info                 : Audio Coding 3
Codec ID                    : A_AC3
Duration                    : 1 h 50 min
Bit rate mode               : Constant
Bit rate                    : 192 kb/s
Channel(s)                  : 2 channels
Channel positions           : Front: L R
Sampling rate               : 48.0 kHz
Frame rate                  : 31.250 FPS (1536 SPF)
Bit depth                   : 16 bits
Compression mode            : Lossy
Stream size                 : 151 MiB (2%)
Language                    : Ukrainian
Service kind                : Complete Main
Default                     : Yes
Forced                      : Yes

Audio #2
ID                          : 3
Format                      :
Format/Info                 : Digital Theater Systems
Codec ID                    : A_DTS
Duration                    : 1 h 50 min
Bit rate mode               : Constant
Bit rate                    : 1 510 kb/s
Channel(s)                  : 6 channels
Channel positions           : Front: L C R, Side: L R, LFE
Sampling rate               : 48.0 kHz
Frame rate                  : 93.750 FPS (512 SPF)
Bit depth                   : 24 bits
Compression mode            : Lossy
Stream size                 : 1.16 GiB (14%)
Title                       : 5.1 @ 1536 kbps
Language                    : French
Default                     : No
Forced                      : No

Text
ID                          : 4
Format                      : UTF-8
Codec ID                    : S_TEXT/UTF8
Codec ID/Info               : UTF-8 Plain Text
Duration                    : 1 h 45 min
Bit rate                    : 45 b/s
Count of elements           : 1118
Stream size                 : 35.5 KiB (0%)
Language                    : English
Default                     : No
Forced                      : No

Скріншоти:







Джерела та подяки: &
ріп відео, оригінальні звук та субтитри - українська доріжка - karvai0 - зведення, xslim - запис з ТБ; українізовані постери - Тирік; фільмографії акторів та інформація про озвучення - Віктор (всі - Гуртом).


ЗАЛИШАЙТЕСЬ ЯКОМОГА ДОВШЕ НА РОЗДАЧІ!

СКАЧАВ САМ - ДАЙ СКАЧАТИ ІНШИМ


 Трекер:    Зареєстрований   

Завантажити / скачати фільм українською



відео для новачків



 Зареєстрований:   2018-10-02 16:53
 Розмір:   8.1 GB 
 Оцінка фільму:   10/10 (Голосів: 2)
   
bot 
робот


З нами з: 30.09.07
Востаннє: 26.05.05
Повідомлень: 20337

2018-10-02 16:52  
Тему перенесено з Анонси релізів до форуму Фільми в HD


staf777

Ваш часовий пояс: GMT + 2 Години

Нова тема   Відповісти