Оскар / Oscar (1991) 1080p Ukr/Eng | Sub Eng

Нові коментарі

Нова тема   Відповісти
Автор Повідомлення
Anonymous 







2018-09-30 17:22  
Оскар / Oscar (1991) 1080p Ukr/Eng | Sub Eng

Оскар / Oscar (1991) 1080p Ukr/Eng | Sub Eng


Жанр: комедія, кримінальний
Країна: США



Кінокомпанія: Touchstone Pictures
Режисер: Джон Лендіс
Актори: Сільвестр Сталлоне, Орнела Муті, Дон Аміче, Пітер Рігерт, Тім Каррі, Вінсент Спано, Маріса Томеі, Едді Брейкен, Лінда Грей, Чез Полмінтері, Куртвуд Сміт, Івон Де Карло, Кен Ховард, Вільям Езертон, Мартін Ферреро

Сюжет:
Біля ліжка батька, який щохвилини може померти, гангстер обіцяє припинити життя злочинця й стати легальним бізнесменом. Але нестерпна плутанина і хаос в його будинку призводять до того, що «припинити» виходить найскладнішим дільцем з усіх.


Тривалість: 01:49:33
Якість: 1080p
Відео:
кодек:
розмір кадру: 1920х1040
бітрейт: 12,8 Мб/с

Аудіо # 1:
мова: українська
переклад: багатоголосий закадровий ,
кодек: 2.0
бітрейт: 192 кб/с

Аудіо # 2:
мова: англійська
переклад: оригінал
кодек: 2.0
бітрейт: 1509 кб/с

Субтитри:
мова: англійська
тип: програмні (м'які)
формат: *.srt
Info
General
Unique ID : 230832820985202160864451471097000029684 (0xADA8C8C1DFAAE7968E0725A0E28AEDF4)

Format :
Format version : Version 4 / Version 2
File size : 11.1 GiB
Duration : 1 h 49 min
Overall bit rate : 14.5 Mb/s
Encoded date : UTC 2018-09-30 14:13:09
Writing application : v6.1.0 ('Old Devil') built on Mar 4 2013 09:10:42
Writing library : libebml v1.3.0 + v1.4.0

Video
ID : 1
Format : AVC
Format/Info : Advanced Video Codec
Format profile : [email protected]
Format settings : CABAC / 4 Ref Frames
Format settings, CABAC : Yes
Format settings, ReFrames : 4 frames
Codec ID : V_MPEG4/ISO/AVC
Duration : 1 h 49 min
Bit rate : 12.8 Mb/s
Width : 1 920 pixels
Height : 1 040 pixels
Display aspect ratio : 1.85:1
Frame rate mode : Constant
Frame rate : 23.976 (24000/1001) FPS
Color space : YUV
Chroma subsampling : 4:2:0
Bit depth : 8 bits
Scan type : Progressive
Bits/(Pixel*Frame) : 0.267
Stream size : 9.55 GiB (86%)
Writing library : core 157 r2932 303c484
Encoding settings : cabac=1 / ref=4 / deblock=1:-3:-3 / analyse=0x3:0x113 / me=umh / subme=8 / psy=1 / psy_rd=1.10:0.00 / mixed_ref=1 / me_range=32 / chroma_me=1 / trellis=2 / 8x8dct=1 / cqm=0 / deadzone=21,11 / fast_pskip=1 / chroma_qp_offset=-2 / threads=32 / lookahead_threads=5 / sliced_threads=0 / nr=0 / decimate=1 / interlaced=0 / bluray_compat=0 / constrained_intra=0 / bframes=3 / b_pyramid=2 / b_adapt=2 / b_bias=0 / direct=3 / weightb=1 / open_gop=0 / weightp=2 / keyint=240 / keyint_min=24 / scenecut=40 / intra_refresh=0 / rc_lookahead=50 / rc=2pass / mbtree=1 / bitrate=12776 / ratetol=1.0 / qcomp=0.60 / qpmin=0 / qpmax=69 / qpstep=4 / cplxblur=20.0 / qblur=0.5 / ip_ratio=1.40 / aq=3:0.75
Default : Yes
Forced : No
Statistics Tags Issue : no_variable_data 1970-01-01 00:00:00 / v6.1.0 ('Old Devil') built on Mar 4 2013 09:10:42 2018-09-30 14:13:09
FromStats_BitRate : 12768265
FromStats_Duration : 01:49:33.359000000
FromStats_FrameCount : 157603
FromStats_StreamSize : 10491299227

Audio #1
ID : 2
Format : AC-3
Format/Info : Audio Coding 3
Codec ID : A_AC3
Duration : 1 h 49 min
Bit rate mode : Constant
Bit rate : 192 kb/s
Channel(s) : 2 channels
Channel positions : Front: L R
Sampling rate : 48.0 kHz
Frame rate : 31.250 FPS (1536 SPF)
Bit depth : 16 bits
Compression mode : Lossy
Stream size : 150 MiB (1%)
Title : UKR (1+1, K1)
Language : Ukrainian
Service kind : Complete Main
Default : Yes
Forced : Yes

Audio #2
ID : 3
Format :
Format/Info : Digital Theater Systems
Codec ID : A_DTS
Duration : 1 h 49 min
Bit rate mode : Constant
Bit rate : 1 509 kb/s
Channel(s) : 2 channels
Channel positions : Front: L R
Sampling rate : 48.0 kHz
Frame rate : 93.750 FPS (512 SPF)
Bit depth : 24 bits
Compression mode : Lossy
Stream size : 1.15 GiB (10%)
Language : English
Default : No
Forced : No
Statistics Tags Issue : no_variable_data 1970-01-01 00:00:00 / v6.1.0 ('Old Devil') built on Mar 4 2013 09:10:42 2018-09-30 14:13:09
FromStats_BitRate : 1509000
FromStats_Duration : 01:49:33.376000000
FromStats_FrameCount : 616254
FromStats_StreamSize : 1239903048

Text
ID : 4
Format : UTF-8
Codec ID : S_TEXT/UTF8
Codec ID/Info : UTF-8 Plain Text
Language : English
Default : No
Forced : No
Statistics Tags Issue : no_variable_data 1970-01-01 00:00:00 / v6.1.0 ('Old Devil') built on Mar 4 2013 09:10:42 2018-09-30 14:13:09
FromStats_BitRate : 77
FromStats_Duration : 01:42:55.209000000
FromStats_FrameCount : 1332
FromStats_StreamSize : 59448

Menu
00:00:00.000 : en:00:00:00.000
00:10:12.446 : en:00:10:12.446
00:23:50.931 : en:00:23:50.931
00:41:59.643 : en:00:41:59.643
00:56:51.076 : en:00:56:51.076
01:11:00.508 : en:01:11:00.508
01:24:55.508 : en:01:24:55.508
01:34:43.930 : en:01:34:43.930
Скріншоти










За українську доріжку подяка п. xslim, Arsenfpu
Особиста подяка пану denixx за надану матеріальну допомогу на підтримку цього і майбутніх релізів.
Джерело:


Срібний реліз (на рейтинг впливає 50% завантаженого)
 Трекер:    Зареєстрований   

Завантажити / скачати фільм українською



відео для новачків



 Зареєстрований:   2018-09-30 17:22
 Розмір:   11.07 GB 
 Оцінка фільму:   10/10 (Голосів: 7)
   
Інші релізи
   Оскар / Oscar (1991) Ukr/Eng Arsenfpu  5 / 0   1.63 GB   2016-11-24 01:56 
   Оскар / Oscar (1991) 720p Ukr/Eng | Sub Eng Загора  1 / 0   4.54 GB   2016-02-17 20:07 
Ваш часовий пояс: GMT + 2 Години

Нова тема   Відповісти