Джона Хекс / Jonah Hex (2010) AVC Ukr/Eng | Sub Ukr/Eng

Нові коментарі

Нова тема   Відповісти
Автор Повідомлення
staf777 
Відео Гуртом - підтримка та поширення
Відео Гуртом - підтримка та поширення


З нами з: 16.11.16
Востаннє: 20.11.19
Повідомлень: 3034

2018-09-30 13:45  
Джона Хекс / Jonah Hex (2010) AVC Ukr/Eng | Sub Ukr/Eng

Джона Хекс / Jonah Hex (2010) AVC Ukr/Eng | Sub Ukr/Eng


Жанр: бойовик, вестерн, фентезі, трилер, драма
Країна: США



Кінокомпанія: Legendary Pictures, DC Comics, Mad Chance, Weed Road Pictures
Режисер: Джиммі Хейярд / Jimmy Hayward
Актори: Джош Бролін, Джон Малковіч, Меган Фокс, Майкл Фассбендер, Вілл Арнетт, Джон Галлахер мол., Том Вопат, Майкл Шеннон, Вес Бентлі, Джулія Джонс

Сюжет:
Парад героїв американських коміксів продовжується - настала черга Джони Гекса: брутального мисливця за головами, індіанського вихованця і солдата армії Конфедерації - з понівеченим несправедливим судом обличчям і загрубілим серцем він все одно живе за власним кодексом честі, мандруючи охопленим полум'ям громадянської війни півднем США.


Тривалість: 01:21:28
Якість: AVC
Відео:
кодек:
розмір кадру: 1024x432
бітрейт: 1787 кб/с

Аудіо # 1:
мова: українська
переклад: двоголосий закадровий
кодек: 2.0
бітрейт: 192 кб/с

Аудіо # 2:
мова: англійська
переклад: оригінал
кодек: 5.1
бітрейт: 384 кб/с

Джерело озвучення:


Субтитри:
мова: українська
тип: програмні (м'які)
формат: *.srt

Субтитри:
мова: англійська
тип: програмні (м'які)
формат: *.srt
Info
General
Unique ID : 22559925709463248921915920583339083931 (0x10F8E236AB909B91E8348D03CD29089B)
Complete name : N:\Jonah Hex (2010) AVC [UKR_ENG] [Hurtom].
Format :
Format version : Version 4 / Version 2
File size : 1.35 GiB
Duration : 1 h 21 min
Overall bit rate : 2 366 kb/s
Movie name : Jonah Hex (2010) AVC [UKR_ENG] [Hurtom]
Encoded date : UTC 2018-09-30 10:04:37
Writing application : v24.0.0 ('Beyond The Pale') 64-bit
Writing library : libebml v1.3.6 + v1.4.9
Cover : Yes
Attachments : cover.jpg

Video
ID : 1
Format : AVC
Format/Info : Advanced Video Codec
Format profile : [email protected]
Format settings : CABAC / 10 Ref Frames
Format settings, CABAC : Yes
Format settings, ReFrames : 10 frames
Codec ID : V_MPEG4/ISO/AVC
Duration : 1 h 21 min
Bit rate : 1 787 kb/s
Width : 1 024 pixels
Height : 432 pixels
Display aspect ratio : 2.40:1
Frame rate mode : Constant
Frame rate : 23.976 FPS
Color space : YUV
Chroma subsampling : 4:2:0
Bit depth : 8 bits
Scan type : Progressive
Bits/(Pixel*Frame) : 0.168
Stream size : 1.02 GiB (75%)
Writing library : core 104 r1713 c276662
Encoding settings : cabac=1 / ref=10 / deblock=1:-2:-1 / analyse=0x3:0x133 / me=umh / subme=9 / psy=1 / psy_rd=1.00:0.10 / mixed_ref=1 / me_range=32 / chroma_me=1 / trellis=2 / 8x8dct=1 / cqm=0 / deadzone=21,11 / fast_pskip=0 / chroma_qp_offset=-3 / threads=3 / sliced_threads=0 / nr=0 / decimate=1 / interlaced=0 / constrained_intra=0 / bframes=8 / b_pyramid=2 / b_adapt=2 / b_bias=0 / direct=3 / weightb=1 / open_gop=0 / weightp=2 / keyint=250 / keyint_min=23 / scenecut=40 / intra_refresh=0 / rc_lookahead=80 / rc=2pass / mbtree=1 / bitrate=1787 / ratetol=1.0 / qcomp=0.60 / qpmin=10 / qpmax=51 / qpstep=4 / cplxblur=20.0 / qblur=0.5 / ip_ratio=1.40 / aq=1:1.00
Language : English
Default : No
Forced : No

Audio #1
ID : 2
Format : AC-3
Format/Info : Audio Coding 3
Codec ID : A_AC3
Duration : 1 h 21 min
Bit rate mode : Constant
Bit rate : 192 kb/s
Channel(s) : 2 channels
Channel positions : Front: L R
Sampling rate : 48.0 kHz
Frame rate : 31.250 FPS (1536 SPF)
Bit depth : 16 bits
Compression mode : Lossy
Stream size : 112 MiB (8%)
Title : [UA-DVO]
Language : Ukrainian
Service kind : Complete Main
Default : Yes
Forced : Yes

Audio #2
ID : 3
Format : AC-3
Format/Info : Audio Coding 3
Codec ID : A_AC3
Duration : 1 h 21 min
Bit rate mode : Constant
Bit rate : 384 kb/s
Channel(s) : 6 channels
Channel positions : Front: L C R, Side: L R, LFE
Sampling rate : 48.0 kHz
Frame rate : 31.250 FPS (1536 SPF)
Bit depth : 16 bits
Compression mode : Lossy
Stream size : 224 MiB (16%)
Language : English
Service kind : Complete Main
Default : No
Forced : No

Text #1
ID : 4
Format : UTF-8
Codec ID : S_TEXT/UTF8
Codec ID/Info : UTF-8 Plain Text
Duration : 1 h 11 min
Bit rate : 62 b/s
Count of elements : 667
Stream size : 32.8 KiB (0%)
Language : Ukrainian
Default : No
Forced : No

Text #2
ID : 5
Format : UTF-8
Codec ID : S_TEXT/UTF8
Codec ID/Info : UTF-8 Plain Text
Duration : 1 h 20 min
Bit rate : 38 b/s
Count of elements : 707
Stream size : 22.5 KiB (0%)
Language : English
Default : No
Forced : No
Скріншоти



Подяки:
- за запис звуку з ТБ п. POMEO,
- за синхронізацію п.patriot2305,
- за постер п. bilenkuyboy

Джерело: &
Особиста оцінка: 0 - не дивився
Джона Хекс / Jonah Hex (2010) AVC Ukr/Eng | Sub Ukr/Eng

Джона Хекс / Jonah Hex (2010) AVC Ukr/Eng | Sub Ukr/Eng


 Трекер:    Зареєстрований   

Завантажити / скачати фільм українською



відео для новачків



 Зареєстрований:   2018-09-30 13:45
 Розмір:   1.35 GB 
 Оцінка фільму:   8.3/10 (Голосів: 17)
   
Інші релізи
   Джона Хекс / Jonah Hex (2010) Remux 1080p Ukr/Eng | Sub Ukr/Eng kryk-v.ya.  2 / 0   17.16 GB   2019-09-17 10:43 
   Джона Хекс / Jonah Hex (2010) 720p Ukr/Eng | Sub Ukr/Eng staf777  3 / 0   3.49 GB   2018-10-10 21:09 
   Джона Хекс / Jonah Hex (2010) 1080p Ukr/Eng | Sub Ukr/Eng igor911  3 / 0   8.2 GB   2015-04-09 01:44 
   Джона Хекс / Jonah Hex (2010) Ukr/Eng | sub Ukr/Eng patriot2305  3 / 0   1.35 GB   2013-05-23 07:58 
Ваш часовий пояс: GMT + 2 Години

Нова тема   Відповісти