Спогади про майбутнє (Заповіт Юності) / Testament of Youth (2014) AVC Ukr/Eng | Sub Eng

Нові коментарі

Нова тема   Відповісти
Автор Повідомлення
staf777 
Відео Гуртом - підтримка та поширення
Відео Гуртом - підтримка та поширення


З нами з: 16.11.16
Востаннє: 15.12.19
Повідомлень: 3071

2018-09-30 11:05  
Спогади про майбутнє / Заповіт Юності / Testament of Youth (2014) AVC Ukr/Eng | Sub Eng

Спогади про майбутнє (Заповіт Юності) / Testament of Youth (2014) AVC Ukr/Eng | Sub Eng


Жанр: біографічний, драма, історичний, воєнний
Країна: Велика Британія



Кінокомпанія: BBC Films, Heyday Films
Режисер: Джеймс Кент / James Kent
Актори: Алісія Вікандер / Alicia Vikander, Кіт Гарінґтон / Kit Harington, Емілі Вотсон / Emily Watson, Гейлі Етвелл / Hayley Atwell, Колін Морґан / Colin Morgan, Домінік Вест / Dominic West, Міранда Річардсон / Miranda Richardson та інші

Сюжет:
Нерозлучні друзі Роланд, Віктор, Едвард і його сестра Віра будують плани на майбутнє. Віра, всупереч волі батьків, нарівні з юнаками вступає до Оксфорду та хоче стати письменницею. Між Вірою і Роландом виникають почуття, більші за дружбу. Але всі мрії доведеться відкласти на потім через початок війни. Тепер місце хлопців на фронті, а Віра, прагнучи зробити свій внесок у перемогу, вирушає працювати медсестрою у військовий шпиталь.


Тривалість: 02:09:44
Якість: AVC
Відео:
кодек:
розмір кадру: 1024x424
бітрейт: 1400 кб/с

Аудіо # 1:
мова: українська
переклад: професійний дубльований
кодек: 5.1
бітрейт: 448 кб/с

Аудіо # 2:
мова: англійська
переклад: оригінал
кодек: 2.0
бітрейт: 384 кб/с

Субтитри:
мова: англійська
тип: програмні (м'які)
формат: *.srt
Info
General
Unique ID : 220389181544069607794078499711502803860 (0xA5CD69940F73EB76D286907D09A06394)
Complete name : N:\Фільми AVC\Драма\Testament of Youth (2014) AVC [UKR_ENG] [Hurtom].
Format :
Format version : Version 4 / Version 2
File size : 2.02 GiB
Duration : 2 h 9 min
Overall bit rate : 2 233 kb/s
Movie name : Testament of Youth (2014) AVC [UKR_ENG] [Hurtom]
Encoded date : UTC 2018-09-30 08:30:26
Writing application : v24.0.0 ('Beyond The Pale') 64-bit
Writing library : libebml v1.3.6 + v1.4.9
Cover : Yes
Attachments : cover.jpg

Video
ID : 1
Format : AVC
Format/Info : Advanced Video Codec
Format profile : [email protected]
Format settings : CABAC / 10 Ref Frames
Format settings, CABAC : Yes
Format settings, ReFrames : 10 frames
Codec ID : V_MPEG4/ISO/AVC
Duration : 2 h 9 min
Bit rate : 1 400 kb/s
Width : 1 024 pixels
Height : 424 pixels
Display aspect ratio : 2.40:1
Frame rate mode : Constant
Frame rate : 23.976 FPS
Color space : YUV
Chroma subsampling : 4:2:0
Bit depth : 8 bits
Scan type : Progressive
Bits/(Pixel*Frame) : 0.134
Stream size : 1.27 GiB (63%)
Writing library : core 146 r2538 121396c
Encoding settings : cabac=1 / ref=10 / deblock=1:-3:-3 / analyse=0x3:0x113 / me=umh / subme=11 / psy=1 / psy_rd=1.05:0.15 / mixed_ref=1 / me_range=32 / chroma_me=1 / trellis=2 / 8x8dct=1 / cqm=0 / deadzone=21,11 / fast_pskip=0 / chroma_qp_offset=-3 / threads=12 / lookahead_threads=2 / sliced_threads=0 / nr=0 / decimate=0 / interlaced=0 / bluray_compat=0 / constrained_intra=0 / bframes=7 / b_pyramid=2 / b_adapt=2 / b_bias=0 / direct=3 / weightb=1 / open_gop=1 / weightp=2 / keyint=240 / keyint_min=23 / scenecut=40 / intra_refresh=0 / rc=2pass / mbtree=0 / bitrate=1400 / ratetol=1.0 / qcomp=0.70 / qpmin=0 / qpmax=69 / qpstep=4 / cplxblur=20.0 / qblur=0.5 / ip_ratio=1.40 / pb_ratio=1.30 / aq=1:0.70
Language : English
Default : Yes
Forced : No

Audio #1
ID : 2
Format : AC-3
Format/Info : Audio Coding 3
Codec ID : A_AC3
Duration : 2 h 9 min
Bit rate mode : Constant
Bit rate : 448 kb/s
Channel(s) : 6 channels
Channel positions : Front: L C R, Side: L R, LFE
Sampling rate : 48.0 kHz
Frame rate : 31.250 FPS (1536 SPF)
Bit depth : 16 bits
Compression mode : Lossy
Stream size : 416 MiB (20%)
Language : Ukrainian
Service kind : Complete Main
Default : Yes
Forced : Yes

Audio #2
ID : 3
Format : AC-3
Format/Info : Audio Coding 3
Codec ID : A_AC3
Duration : 2 h 9 min
Bit rate mode : Constant
Bit rate : 384 kb/s
Channel(s) : 6 channels
Channel positions : Front: L C R, Side: L R, LFE
Sampling rate : 48.0 kHz
Frame rate : 31.250 FPS (1536 SPF)
Bit depth : 16 bits
Compression mode : Lossy
Stream size : 356 MiB (17%)
Language : English
Service kind : Complete Main
Default : No
Forced : No

Text
ID : 4
Format : UTF-8
Codec ID : S_TEXT/UTF8
Codec ID/Info : UTF-8 Plain Text
Duration : 2 h 1 min
Bit rate : 45 b/s
Count of elements : 1220
Stream size : 40.7 KiB (0%)
Language : English
Default : No
Forced : No

Menu
00:00:00.000 : en:00:00:00.000
00:10:38.763 : en:00:10:38.763
00:20:37.695 : en:00:20:37.695
00:30:48.263 : en:00:30:48.263
00:39:06.344 : en:00:39:06.344
00:50:45.751 : en:00:50:45.751
01:00:15.529 : en:01:00:15.529
01:09:32.460 : en:01:09:32.460
01:19:41.026 : en:01:19:41.026
01:31:14.010 : en:01:31:14.010
01:39:57.116 : en:01:39:57.116
01:51:01.071 : en:01:51:01.071
Скріншоти



Джерело: &
Особиста оцінка: 0 - не дивився
Спогади про майбутнє (Заповіт Юності) / Testament of Youth (2014) AVC Ukr/Eng | Sub Eng

Спогади про майбутнє (Заповіт Юності) / Testament of Youth (2014) AVC Ukr/Eng | Sub Eng


 Трекер:    Зареєстрований   

Завантажити / скачати фільм українською



відео для новачків



 Зареєстрований:   2018-09-30 11:05
 Розмір:   2.02 GB 
 Оцінка фільму:   9.2/10 (Голосів: 19)
   
perepadia 
VIP


З нами з: 27.10.08
Востаннє: 14.12.19
Повідомлень: 288

2018-09-30 12:19  
Фільм вже відомий під своєю достотною назвою "Заповіт Юности". Кому спало на думку його переназивати та ще й так недолуго?
ssTAss 
Модератор музики


З нами з: 05.07.08
Востаннє: 15.12.19
Повідомлень: 15654

2018-09-30 14:23  
perepadia написано:
Кому спало на думку його переназивати та ще й так недолуго?

Здогадайтесь самі

Ваш часовий пояс: GMT + 2 Години

Нова тема   Відповісти