Для неї / Pour elle (2008) 720p Ukr/Fre | Sub Eng

Нові коментарі

Нова тема   Відповісти
Автор Повідомлення
Anonymous 







2018-09-30 08:41  
Для неї / Pour elle (2008) 720p Ukr/Fre | Sub Eng

Для неї / Pour elle (2008) 720p Ukr/Fre | Sub Eng


Жанр: трилер, драма, кримінальний
Країна: Франція, Іспанія



Кінокомпанія: Wild Bunch, Fidélité Films
Режисер: Фред Каває
Актори: Венсан Ліндон, Діана Крюгер, Ланселот Рош, Олів'є Маршаль, Хамму Грайа, Ліліан Ровер, Олів'є Пер'є, Мусса Мааскрі, Ремі Мартен, Т'єррі Годар

Сюжет:
Ліза, Жюльєн та їхній маленький син Оскар - щаслива сім'я. Але одного разу вранці поліція приїжджає за Лізою. Її звинувачують у навмисному вбивстві. Всі докази свідчать проти неї. І тепер Жюльєн, звичайний вчитель французької, готовий зробити все, щоб врятувати дружину. Навіть якщо йому доведеться переступити межі закону.


Тривалість: 01:36:33
Якість: 720p
Відео:
кодек:
розмір кадру: 1280х546
бітрейт: 7017 кб/с

Аудіо # 1:
мова: українська
переклад: багатоголосий закадровий
кодек: 2.0
бітрейт: 192 кб/с

Аудіо # 2:
мова: французька
переклад: оригінал
кодек: 5.1
бітрейт: 640 кб/с

Субтитри:
мова: англійська
тип: програмні (м'які)
формат: *.srt
Info
General
Unique ID : 233150668211343337600301756008130147027 (0xAF672F72D96EB3039E843548EB6FF2D3)

Format :
Format version : Version 4 / Version 2
File size : 5.40 GiB
Duration : 1 h 36 min
Overall bit rate : 8 008 kb/s
Encoded date : UTC 2018-09-30 05:35:06
Writing application : v6.1.0 ('Old Devil') built on Mar 4 2013 09:10:42
Writing library : libebml v1.3.0 + v1.4.0

Video
ID : 1
Format : AVC
Format/Info : Advanced Video Codec
Format profile : [email protected]
Format settings : CABAC / 11 Ref Frames
Format settings, CABAC : Yes
Format settings, ReFrames : 11 frames
Codec ID : V_MPEG4/ISO/AVC
Duration : 1 h 36 min
Bit rate : 7 017 kb/s
Width : 1 280 pixels
Height : 546 pixels
Display aspect ratio : 2.35:1
Frame rate mode : Constant
Frame rate : 23.976 (24000/1001) FPS
Color space : YUV
Chroma subsampling : 4:2:0
Bit depth : 8 bits
Scan type : Progressive
Bits/(Pixel*Frame) : 0.419
Stream size : 4.73 GiB (88%)
Writing library : core 148 r2692 64f4e24
Encoding settings : cabac=1 / ref=11 / deblock=1:-3:-3 / analyse=0x3:0x133 / me=umh / subme=11 / psy=1 / psy_rd=1.00:0.11 / mixed_ref=1 / me_range=32 / chroma_me=1 / trellis=2 / 8x8dct=1 / cqm=0 / deadzone=21,11 / fast_pskip=0 / chroma_qp_offset=-3 / threads=6 / lookahead_threads=1 / sliced_threads=0 / nr=0 / decimate=1 / interlaced=0 / bluray_compat=0 / constrained_intra=0 / bframes=10 / b_pyramid=2 / b_adapt=2 / b_bias=0 / direct=3 / weightb=1 / open_gop=0 / weightp=2 / keyint=240 / keyint_min=23 / scenecut=40 / intra_refresh=0 / rc=crf / mbtree=0 / crf=16.8 / qcomp=0.60 / qpmin=0 / qpmax=69 / qpstep=4 / ip_ratio=1.40 / pb_ratio=1.30 / aq=2:0.80
Language : English
Default : Yes
Forced : No

Audio #1
ID : 2
Format : AC-3
Format/Info : Audio Coding 3
Codec ID : A_AC3
Duration : 1 h 36 min
Bit rate mode : Constant
Bit rate : 192 kb/s
Channel(s) : 2 channels
Channel positions : Front: L R
Sampling rate : 48.0 kHz
Frame rate : 31.250 FPS (1536 SPF)
Bit depth : 16 bits
Compression mode : Lossy
Stream size : 133 MiB (2%)
Title : UKR (DVD)
Language : Ukrainian
Service kind : Complete Main
Default : Yes
Forced : Yes

Audio #2
ID : 3
Format : AC-3
Format/Info : Audio Coding 3
Codec ID : A_AC3
Duration : 1 h 36 min
Bit rate mode : Constant
Bit rate : 640 kb/s
Channel(s) : 6 channels
Channel positions : Front: L C R, Side: L R, LFE
Sampling rate : 48.0 kHz
Frame rate : 31.250 FPS (1536 SPF)
Bit depth : 16 bits
Compression mode : Lossy
Stream size : 442 MiB (8%)
Language : French
Service kind : Complete Main
Default : No
Forced : No

Text
ID : 4
Format : UTF-8
Codec ID : S_TEXT/UTF8
Codec ID/Info : UTF-8 Plain Text
Language : English
Default : No
Forced : No

Menu
00:00:00.000 : en:00:00:00.000
00:06:56.582 : en:00:06:56.582
00:15:49.031 : en:00:15:49.031
00:21:36.712 : en:00:21:36.712
00:25:33.114 : en:00:25:33.114
00:38:48.492 : en:00:38:48.492
00:46:52.643 : en:00:46:52.643
00:52:56.423 : en:00:52:56.423
01:02:11.310 : en:01:02:11.310
01:10:50.120 : en:01:10:50.120
01:21:12.617 : en:01:21:12.617
01:32:23.287 : en:01:32:23.287
Скріншоти








За українську доріжку подяка пану Tarasyk
Зведення звуку та українізований постер: Hanway
Особиста подяка пану denixx за надану матеріальну допомогу на підтримку цього і майбутніх релізів.
Джерело:


 Трекер:    Зареєстрований   

Завантажити / скачати фільм українською



відео для новачків



 Зареєстрований:   2018-09-30 08:41
 Розмір:   5.4 GB 
 Оцінка фільму:   8/10 (Голосів: 6)
   
Інші релізи
   Для неї / Pour elle (2008) Ukr/Fre Hanway  5 / 0   1.88 GB   2012-11-03 14:34 
Ваш часовий пояс: GMT + 2 Години

Нова тема   Відповісти