Трансформери. Колекція / Transformers. Collection (2007/2009/2011/2014/2017) UHD Remux 2160p 4K HDR H.265 Ukr/Eng | Sub Eng

Нові коментарі

Нова тема   Відповісти
Сторінка:  1, 2  наступна
Автор Повідомлення
Documentalist 
Частий відвідувач


З нами з: 04.06.17
Востаннє: 22.10.18
Повідомлень: 48

2018-09-30 03:47  
Трансформери. Колекція / Transformers. Collection (2007/2009/2011/2014/2017) UHD Remux 2160p 4K HDR H.265 Ukr/Eng | Sub Ukr/Eng

Трансформери. Колекція / Transformers. Collection (2007/2009/2011/2014/2017) UHD Remux 2160p 4K HDR H.265 Ukr/Eng | Sub Eng
Трансформери / Transformers (2007) UHD Remux 2160p 4K HDR H.265 Ukr/Eng | Sub Ukr/Eng


Трансформери / Transformers (2007) UHD Remux 2160p 4K HDR H.265 Ukr/Eng | Sub Ukr/Eng


Трансформери. Колекція / Transformers. Collection (2007/2009/2011/2014/2017) UHD Remux 2160p 4K HDR H.265 Ukr/Eng | Sub Eng


Жанр: екшн, пригодницький, фантастика
Країна: США



Кінокомпанія: DreamWorks SKG, Paramount Pictures, Hasbro
Режисер: Майкл Бей / Michael Bay
Актори: Шайа ЛаБаф / Shia LaBeouf, Меган Фокс / Megan Fox, Джош Дюамель / Josh Duhamel, Тайріз Гібсон / Tyrese Gibson, Рейчел Тейлор / Rachael Taylor, Ентоні Андерсон / Anthony Anderson, Джон Войт / Jon Voight

Сюжет: Протягом багатьох сторіч дві раси роботів-інопланетян — Автоботи і Десептикони — вели війну, ставкою в якій була доля Bсесвіту. І ось війна добралась до Землі. В той час, коли сили зла шукають ключ до верховної влади, наш останній шанс на порятунок знаходиться в руках юного землянина. Єдине, що стоїть між Десептиконами і вищою владою — це ключ, що знаходиться в руках простого хлопчини.
Звичайний підліток, Сем Уітвіккі стурбований повсякденним клопотом — школа, друзі, машини, дівчата. Не відаючи про те, що він є останнім шансом людства на порятунок, Сем разом з своєю подругою Мікаелою виявляються залученими в протистояння Автоботів і Десептиконів. Тільки тоді Сем розуміє істинне значення сімейного девізу Уітвіккі — «без жертв немає перемоги!».

Тривалість: 02:23:27
Якість: 4K UltraHD Remux 2160p
Відео:
кодек: H.265 (HEVC)
розмір кадру: 3840x2160
бітрейт: 61.8 Мб/с
бітова глибина: 10 біт
кольоровий простір: BT.2020 (HDR)

Аудіо: # 1
мова: українська
переклад: професійний дубльований
кодек: 5.1
бітрейт: 384 кб/с

Аудіо:# 2
мова: англійська
переклад: оригінал
кодек: -HD MA 7.1
бітрейт: 4392 кб/с

Субтитри # 1-2:
мова: українська (Повнi, форсованi)
тип:програмні (м'які)
формат: *.srt

Субтитри# 3
мова: англiйcька
тип: програмні (м'які)
формат: *.srt
Info
Код:
Format                      :
Format version              : Version 4
File size                   : 66.8 GiB
Duration                    : 2 h 23 min
Overall bit rate mode       : Variable
Overall bit rate            : 66.6 Mb/s
Encoded date                : UTC 2018-09-30 09:04:12
Writing application         : v7.8.0 ('River Man') 32bit built on Apr  3 2015 12:11:22
Writing library             : libebml v1.3.1 + v1.4.2
Cover                       : Yes
Attachments                 : Cover.jpg

Video
ID                          : 1
Format                      : HEVC
Format/Info                 : High Efficiency Video Coding
Commercial name             : HDR10
Format profile              : Main [email protected]@High
Codec ID                    : V_MPEGH/ISO/HEVC
Duration                    : 2 h 23 min
Bit rate                    : 61.8 Mb/s
Width                       : 3 840 pixels
Height                      : 2 160 pixels
Display aspect ratio        : 16:9
Frame rate mode             : Variable
Frame rate                  : 23.976 (24000/1001) FPS
Color space                 : YUV
Chroma subsampling          : 4:2:0 (Type 2)
Bit depth                   : 10 bits
Bits/(Pixel*Frame)          : 0.311
Stream size                 : 62.0 GiB (93%)
Language                    : Ukrainian
Default                     : Yes
Forced                      : No
Color range                 : Limited
Color primaries             : BT.2020
Transfer characteristics    : PQ
Matrix coefficients         : BT.2020 non-constant
Mastering display color pri : Display P3
Mastering display luminance : min: 0.0001 cd/m2, max: 1000 cd/m2

Audio #1
ID                          : 2
Format                      : AC-3
Format/Info                 : Audio Coding 3
Commercial name             : Dolby Digital
Codec ID                    : A_AC3
Duration                    : 2 h 23 min
Bit rate mode               : Constant
Bit rate                    : 384 kb/s
Channel(s)                  : 6 channels
Channel layout              : L R C LFE Ls Rs
Sampling rate               : 48.0 kHz
Frame rate                  : 31.250 FPS (1536 SPF)
Bit depth                   : 16 bits
Compression mode            : Lossy
Stream size                 : 394 MiB (1%)
Language                    : Ukrainian
Service kind                : Complete Main
Default                     : Yes
Forced                      : Yes

Audio #2
ID                          : 3
Format                      : XLL
Format/Info                 : Digital Theater Systems
Commercial name             : -HD Master Audio
Codec ID                    : A_DTS
Duration                    : 2 h 23 min
Bit rate mode               : Variable
Bit rate                    : 4 392 kb/s
Channel(s)                  : 8 channels
Channel layout              : C L R LFE Lb Rb Lss Rss
Sampling rate               : 48.0 kHz
Frame rate                  : 93.750 FPS (512 SPF)
Bit depth                   : 24 bits
Compression mode            : Lossless
Stream size                 : 4.40 GiB (7%)
Language                    : English
Default                     : No
Forced                      : No

Text #1
ID                          : 4
Format                      : UTF-8
Codec ID                    : S_TEXT/UTF8
Codec ID/Info               : UTF-8 Plain Text
Duration                    : 2 h 23 min
Bit rate                    : 110 b/s
Count of elements           : 1866
Stream size                 : 117 KiB (0%)
Title                       : Повнi
Language                    : Ukrainian
Default                     : No
Forced                      : No

Text #2
ID                          : 5
Format                      : UTF-8
Codec ID                    : S_TEXT/UTF8
Codec ID/Info               : UTF-8 Plain Text
Duration                    : 1 h 39 min
Bit rate                    : 1 b/s
Count of elements           : 20
Stream size                 : 1.04 KiB (0%)
Title                       : Форсованi
Language                    : Ukrainian
Default                     : Yes
Forced                      : Yes

Text #3
ID                          : 6
Format                      : UTF-8
Codec ID                    : S_TEXT/UTF8
Codec ID/Info               : UTF-8 Plain Text
Duration                    : 2 h 21 min
Bit rate                    : 72 b/s
Count of elements           : 2031
Stream size                 : 75.1 KiB (0%)
Language                    : English
Default                     : No
Forced                      : No
Скріншоти



Трансформери: Помста полеглих / Transformers: Revenge of the Fallen (2009) UHD Remux 2160p 4K HDR H.265 Ukr/Eng | Sub Ukr/Eng


Трансформери: Помста полеглих / Transformers: Revenge of the Fallen (2009) UHD Remux 2160p 4K HDR H.265 Ukr/Eng | Sub Ukr/Eng


Трансформери. Колекція / Transformers. Collection (2007/2009/2011/2014/2017) UHD Remux 2160p 4K HDR H.265 Ukr/Eng | Sub Eng


Жанр: екшн, пригодницький, фантастика
Країна: США



Кінокомпанія: DreamWorks SKG, Paramount Pictures, Hasbro
Режисер: Майкл Бей / Michael Bay
Актори: Шайа ЛаБаф / Shia LaBeouf, Меган Фокс / Megan Fox, Джош Дюамель / Josh Duhamel, Тайріз Гібсон / Tyrese Gibson, Джон Туртурро / John Turturro, Рамон Родрігез / Ramon Rodriguez, Кевін Данн / Kevin Dunn та інші

Сюжет: Пройшло кілька років з моменту масштабного зіткнення Автоботів і Десептиконів на Землі. Сем, намагаючись втекти від минулого, тимчасово розлучився із Мікаелою та вирушив в університет навчатися. Загін автоботів на чолі з Оптимусом Праймом об'єднався разом із людьми тепер уже сержанта Леннокса у спеціальний підрозділ за назвою "NEST" (Networked Elements: Supporters and Transformers) і розпочав вилов Десептиконів, що залишилися на планеті. Але зло не дрімає, воно лише затаїлося. І дуже скоро на планету нападуть незліченна зграя ворожих солдатів, що бажають прикласти максимум зусиль задля воскресіння свого полеглого лідера - Мегатрона - та розгромити ряди захисників добра...

Тривалість: 02:30:24
Якість: 4K UltraHD Remux 2160p
Відео:
кодек: H.265 (HEVC)
розмір кадру: 3840x2160
бітрейт: 60.8 Мб/с
бітова глибина: 10 біт
кольоровий простір: BT.2020 (HDR)

Аудіо:
мова: українська
переклад: професійний дубльований
кодек: 5.1
бітрейт: 448 кб/с

Аудіо:
мова: англійська
переклад: оригінал
кодек: -HD MA 7.1
бітрейт: 4161 кб/с

Субтитри # 1-2:
мова: українська (Повнi, форсованi)
тип:програмні (м'які)
формат: *.srt

Субтитри# 3
мова: англiйcька
тип: програмні (м'які)
формат: *.srt
Info
Код:
Format                      :
Format version              : Version 4
File size                   : 68.5 GiB
Duration                    : 2 h 29 min
Overall bit rate mode       : Variable
Overall bit rate            : 65.4 Mb/s
Encoded date                : UTC 2018-09-30 10:21:48
Writing application         : v7.8.0 ('River Man') 32bit built on Apr  3 2015 12:11:22
Writing library             : libebml v1.3.1 + v1.4.2
Cover                       : Yes
Attachments                 : cover.jpg

Video
ID                          : 1
Format                      : HEVC
Format/Info                 : High Efficiency Video Coding
Commercial name             : HDR10
Format profile              : Main [email protected]@High
Codec ID                    : V_MPEGH/ISO/HEVC
Duration                    : 2 h 29 min
Bit rate                    : 60.8 Mb/s
Width                       : 3 840 pixels
Height                      : 2 160 pixels
Display aspect ratio        : 16:9
Frame rate mode             : Constant
Frame rate                  : 23.976 (24000/1001) FPS
Color space                 : YUV
Chroma subsampling          : 4:2:0 (Type 2)
Bit depth                   : 10 bits
Bits/(Pixel*Frame)          : 0.306
Stream size                 : 63.7 GiB (93%)
Language                    : Ukrainian
Default                     : Yes
Forced                      : No
Color range                 : Limited
Color primaries             : BT.2020
Transfer characteristics    : PQ
Matrix coefficients         : BT.2020 non-constant
Mastering display color pri : Display P3
Mastering display luminance : min: 0.0001 cd/m2, max: 1000 cd/m2

Audio #1
ID                          : 2
Format                      : AC-3
Format/Info                 : Audio Coding 3
Commercial name             : Dolby Digital
Codec ID                    : A_AC3
Duration                    : 2 h 29 min
Bit rate mode               : Constant
Bit rate                    : 448 kb/s
Channel(s)                  : 6 channels
Channel layout              : L R C LFE Ls Rs
Sampling rate               : 48.0 kHz
Frame rate                  : 31.250 FPS (1536 SPF)
Bit depth                   : 16 bits
Compression mode            : Lossy
Stream size                 : 480 MiB (1%)
Language                    : Ukrainian
Service kind                : Complete Main
Default                     : Yes
Forced                      : Yes

Audio #2
ID                          : 3
Format                      : XLL
Format/Info                 : Digital Theater Systems
Commercial name             : -HD Master Audio
Codec ID                    : A_DTS
Duration                    : 2 h 29 min
Bit rate mode               : Variable
Bit rate                    : 4 161 kb/s
Channel(s)                  : 8 channels
Channel layout              : C L R LFE Lb Rb Lss Rss
Sampling rate               : 48.0 kHz
Frame rate                  : 93.750 FPS (512 SPF)
Bit depth                   : 24 bits
Compression mode            : Lossless
Stream size                 : 4.36 GiB (6%)
Language                    : English
Default                     : No
Forced                      : No

Text #1
ID                          : 4
Format                      : UTF-8
Codec ID                    : S_TEXT/UTF8
Codec ID/Info               : UTF-8 Plain Text
Duration                    : 2 h 21 min
Bit rate                    : 117 b/s
Count of elements           : 1877
Stream size                 : 122 KiB (0%)
Title                       : Повнi
Language                    : Ukrainian
Default                     : No
Forced                      : No

Text #2
ID                          : 5
Format                      : UTF-8
Codec ID                    : S_TEXT/UTF8
Codec ID/Info               : UTF-8 Plain Text
Duration                    : 1 h 45 min
Bit rate                    : 0 b/s
Count of elements           : 11
Stream size                 : 374 Bytes (0%)
Title                       : Форсованi
Language                    : Ukrainian
Default                     : Yes
Forced                      : Yes

Text #3
ID                          : 6
Format                      : UTF-8
Codec ID                    : S_TEXT/UTF8
Codec ID/Info               : UTF-8 Plain Text
Duration                    : 2 h 21 min
Bit rate                    : 70 b/s
Count of elements           : 1846
Stream size                 : 73.3 KiB (0%)
Title                       : Повнi
Language                    : English
Default                     : No
Forced                      : No

Menu
00:00:00.000                : en:Opening Sequence
00:08:49.279                : en:Catching Up
00:14:52.642                : en:Aftermath Of The Splinter
00:18:18.014                : en:N.E.S.T. Command
00:25:07.631                : en:Off To College
00:33:00.520                : en:"You're Cheatin' Heart"
00:37:07.767                : en:We Need You, Sam...
00:43:33.653                : en:Baby Einstein
00:54:56.543                : en:Forest Battle
01:03:23.883                : en:Time To Reveal Ourselves
01:12:26.008                : en:Mourning Optimus
01:20:12.182                : en:The Smithsonian
01:26:35.065                : en:Egypt
01:35:41.152                : en:Vision Of The Past
01:44:54.079                : en:Finding The Matrix
01:50:34.711                : en:Beginning Of The End
01:59:01.801                : en:"A Whole Lotta Fight Comin' Our Way"
02:07:13.709                : en:Desert Battle
02:15:05.306                : en:Sam's Destiny
02:22:14.818                : en:Revenge On The Fallen
Скріншоти




Трансформери 3: Темний бік місяця / Transformers: Dark of the Moon (2011) UHD Remux 2160p 4K HDR H.265 Ukr/Eng | Sub Ukr/Eng


Трансформери 3: Темний бік місяця / Transformers: Dark of the Moon (2011) UHD Remux 2160p 4K HDR H.265 Ukr/Eng | Sub Ukr/Eng


Трансформери. Колекція / Transformers. Collection (2007/2009/2011/2014/2017) UHD Remux 2160p 4K HDR H.265 Ukr/Eng | Sub Eng


Жанр: екшн, пригодницький, фантастика
Країна: США



Кінокомпанія: Paramount Pictures, Hasbro, Di Bonaventura Pictures
Режисер: Майкл Бей / Michael Bay
Актори: Шайа ЛаБаф / Shia LaBeouf, Роузі Хантінгтон-Уайтлі / Rosie Huntington-Whiteley, Джош Дюамель / Josh Duhamel, Тайріз Гібсон / Tyrese Gibson, Джон Туртурро / John Turturro, Рамон Родрігез / Ramon Rodriguez, Кевін Данн / Kevin Dunn та інші

Сюжет: Для наших героїв настали сумні будні: Сем втратив Мікаелу, уряд випускає законодавчий акт про виселення Автоботів з Землі, а доки Мегатрон ховається після ганебної поразки Фоллена, десептікон Шокуейв, правитель Кібертрона, готується зробити візит нашій планеті із зовсім не добрими намірами. Дія завершальної частини трилогії цього разу охопить не лише Землю, але і Місяць, темна сторона якого зберігає не менш темні таємниці.

Тривалість: 02:34:23
Якість: 4K UltraHD Remux 2160p
Відео:
кодек: H.265 (HEVC)
розмір кадру: 3840x2160
бітрейт: 60.6 Мб/с
бітова глибина: 10 біт
кольоровий простір: BT.2020 (HDR)

Аудіо:
мова: українська
переклад: професійний дубльований
кодек: 5.1
бітрейт: 384 кб/с

Аудіо:
мова: англійська
переклад: оригінал
кодек: -HD MA 7.1
бітрейт: 4165 кб/с

Субтитри # 1-2:
мова: українська (Повнi, форсованi)
тип:програмні (м'які)
формат: *.srt

Субтитри# 3-4
мова: англiйcька (Повнi, форсованi)
тип: програмні (м'які)
формат: *.srt
Info
Код:
Format                      :
Format version              : Version 4
File size                   : 70.3 GiB
Duration                    : 2 h 34 min
Overall bit rate mode       : Variable
Overall bit rate            : 65.2 Mb/s
Encoded date                : UTC 2018-09-30 11:17:49
Writing application         : v7.8.0 ('River Man') 32bit built on Apr  3 2015 12:11:22
Writing library             : libebml v1.3.1 + v1.4.2
Cover                       : Yes
Attachments                 : Cover.jpg

Video
ID                          : 1
Format                      : HEVC
Format/Info                 : High Efficiency Video Coding
Commercial name             : HDR10
Format profile              : Main [email protected]@High
Codec ID                    : V_MPEGH/ISO/HEVC
Duration                    : 2 h 34 min
Bit rate                    : 60.6 Mb/s
Width                       : 3 840 pixels
Height                      : 2 160 pixels
Display aspect ratio        : 16:9
Frame rate mode             : Constant
Frame rate                  : 23.976 (24000/1001) FPS
Color space                 : YUV
Chroma subsampling          : 4:2:0 (Type 2)
Bit depth                   : 10 bits
Bits/(Pixel*Frame)          : 0.305
Stream size                 : 65.4 GiB (93%)
Language                    : Ukrainian
Default                     : Yes
Forced                      : No
Color range                 : Limited
Color primaries             : BT.2020
Transfer characteristics    : PQ
Matrix coefficients         : BT.2020 non-constant
Mastering display color pri : Display P3
Mastering display luminance : min: 0.0001 cd/m2, max: 1000 cd/m2

Audio #1
ID                          : 2
Format                      : AC-3
Format/Info                 : Audio Coding 3
Commercial name             : Dolby Digital
Codec ID                    : A_AC3
Duration                    : 2 h 34 min
Bit rate mode               : Constant
Bit rate                    : 384 kb/s
Channel(s)                  : 6 channels
Channel layout              : L R C LFE Ls Rs
Sampling rate               : 48.0 kHz
Frame rate                  : 31.250 FPS (1536 SPF)
Bit depth                   : 16 bits
Compression mode            : Lossy
Stream size                 : 424 MiB (1%)
Language                    : Ukrainian
Service kind                : Complete Main
Default                     : Yes
Forced                      : Yes

Audio #2
ID                          : 3
Format                      : XLL
Format/Info                 : Digital Theater Systems
Commercial name             : -HD Master Audio
Codec ID                    : A_DTS
Duration                    : 2 h 34 min
Bit rate mode               : Variable
Bit rate                    : 4 165 kb/s
Channel(s)                  : 8 channels
Channel layout              : C L R LFE Lb Rb Lss Rss
Sampling rate               : 48.0 kHz
Frame rate                  : 93.750 FPS (512 SPF)
Bit depth                   : 24 bits
Compression mode            : Lossless
Stream size                 : 4.49 GiB (6%)
Language                    : English
Default                     : No
Forced                      : No

Text #1
ID                          : 4
Format                      : UTF-8
Codec ID                    : S_TEXT/UTF8
Codec ID/Info               : UTF-8 Plain Text
Duration                    : 2 h 25 min
Bit rate                    : 111 b/s
Count of elements           : 2081
Stream size                 : 119 KiB (0%)
Title                       : Повнi
Language                    : Ukrainian
Default                     : No
Forced                      : No

Text #2
ID                          : 5
Format                      : UTF-8
Codec ID                    : S_TEXT/UTF8
Codec ID/Info               : UTF-8 Plain Text
Duration                    : 1 h 29 min
Bit rate                    : 1 b/s
Count of elements           : 14
Stream size                 : 792 Bytes (0%)
Title                       : Форсованi
Language                    : Ukrainian
Default                     : Yes
Forced                      : Yes

Text #3
ID                          : 6
Format                      : UTF-8
Codec ID                    : S_TEXT/UTF8
Codec ID/Info               : UTF-8 Plain Text
Duration                    : 2 h 25 min
Bit rate                    : 68 b/s
Count of elements           : 2068
Stream size                 : 73.2 KiB (0%)
Title                       : Повнi
Language                    : English
Default                     : No
Forced                      : No

Menu
00:00:00.000                : en:Battle For Cybertron/Apollo Conspiracy
00:08:52.573                : en:Meeting Carly
00:14:26.615                : en:Chernobyl
00:20:20.928                : en:Interviews
00:28:48.143                : en:Sentinel Prime
00:36:18.634                : en:Day At Work
00:45:18.549                : en:Resurrecting Sentinel
00:51:53.026                : en:The Expert
00:56:34.224                : en:Russian Cosmonauts
01:04:13.307                : en:Soviet Secrets
01:12:56.705                : en:Megatron Hatches Plan
01:19:09.077                : en:Revealing Traitors
01:23:41.391                : en:Autobots Exiled
01:28:44.819                : en:Moving To The City
01:35:13.082                : en:Gathering The Troops
01:42:44.158                : en:Rescue Plan
01:49:12.337                : en:Flying Squirrels
01:56:42.912                : en:Shockwave
02:04:59.116                : en:Battle In The City
02:11:29.590                : en:"Aim For The Eyes!"
02:19:10.884                : en:Closing Of Old Accounts
02:25:37.520                : en:Finale/End Credits
Скріншоти


Трансформери: Час вимирання / Transformers: Age of Extinction (2014) UHD Remux 2160p 4K HDR H.265 Ukr/Eng | Sub Ukr/Eng


Час вимирання / Transformers: Age of Extinction (2014) UHD Remux 2160p 4K HDR H.265 Ukr/Eng | Sub Ukr/Eng


Трансформери. Колекція / Transformers. Collection (2007/2009/2011/2014/2017) UHD Remux 2160p 4K HDR H.265 Ukr/Eng | Sub Eng


Жанр: екшн, пригодницький, фантастика
Країна: США



Кінокомпанія: Paramount Pictures, Hasbro, Di Bonaventura Pictures
Режисер: Майкл Бей / Michael Bay
Актори: Марк Волберґ / Mark Wahlberg, Нікола Пельтц / Nicola Peltz, Стенлі Туччі / Stanley Tucci, Софія Майлс / Sophia Myles, Ебіґейл Клейн / Abigail Klein, Келсі Ґраммер / Kelsey Grammer, Пітер Каллен / Peter Cullen та інші

Сюжет: Автоботи і Десептикони покинули планету, залишивши людство збирати її по шматочках. Тим часом група могутніх бізнесменів і геніальних вчених намагається винести уроки з помилок минулого і поліпшити технології до такої міри, щоб вийти за межі контрольованого раніше. У цей час інша група - стародавніх потужних трансформерів - бере Землю під приціл.

Тривалість: 02:45:07
Якість: 4K UltraHD Remux 2160p
Відео:
кодек: H.265 (HEVC)
розмір кадру: 3840x2160
бітрейт: 57.9 Мб/с
бітова глибина: 10 біт
кольоровий простір: BT.2020 (HDR)

Аудіо:
мова: українська
переклад: професійний дубльований
кодек: 5.1
бітрейт: 384 кб/с

Аудіо:
мова: англійська
переклад: оригінал
кодек: TrueHD+Atmos / TrueHD 7.1
бітрейт: 5025 кб/с

Субтитри # 1-2:
мова: українська (Повнi, форсованi)
тип:програмні (м'які)
формат: *.srt

Субтитри# 3
мова: англiйcька
тип: програмні (м'які) (Повнi, форсованi)
формат: *.srt
Info
Код:
Format                      :
Format version              : Version 4
File size                   : 73.1 GiB
Duration                    : 2 h 45 min
Overall bit rate mode       : Variable
Overall bit rate            : 63.4 Mb/s
Encoded date                : UTC 2018-09-30 12:13:39
Writing application         : v7.8.0 ('River Man') 32bit built on Apr  3 2015 12:11:22
Writing library             : libebml v1.3.1 + v1.4.2
Cover                       : Yes
Attachments                 : cover.jpg

Video
ID                          : 1
Format                      : HEVC
Format/Info                 : High Efficiency Video Coding
Commercial name             : HDR10
Format profile              : Main [email protected]@High
Codec ID                    : V_MPEGH/ISO/HEVC
Duration                    : 2 h 45 min
Bit rate                    : 57.9 Mb/s
Width                       : 3 840 pixels
Height                      : 2 160 pixels
Display aspect ratio        : 16:9
Frame rate mode             : Constant
Frame rate                  : 23.976 (24000/1001) FPS
Color space                 : YUV
Chroma subsampling          : 4:2:0 (Type 2)
Bit depth                   : 10 bits
Bits/(Pixel*Frame)          : 0.291
Stream size                 : 66.8 GiB (91%)
Language                    : Ukrainian
Default                     : Yes
Forced                      : No
Color range                 : Limited
Color primaries             : BT.2020
Transfer characteristics    : PQ
Matrix coefficients         : BT.2020 non-constant
Mastering display color pri : Display P3
Mastering display luminance : min: 0.0001 cd/m2, max: 1000 cd/m2

Audio #1
ID                          : 2
Format                      : AC-3
Format/Info                 : Audio Coding 3
Commercial name             : Dolby Digital
Codec ID                    : A_AC3
Duration                    : 2 h 45 min
Bit rate mode               : Constant
Bit rate                    : 384 kb/s
Channel(s)                  : 6 channels
Channel layout              : L R C LFE Ls Rs
Sampling rate               : 48.0 kHz
Frame rate                  : 31.250 FPS (1536 SPF)
Bit depth                   : 16 bits
Compression mode            : Lossy
Stream size                 : 454 MiB (1%)
Language                    : Ukrainian
Service kind                : Complete Main
Default                     : Yes
Forced                      : Yes

Audio #2
ID                          : 3
Format                      : MLP FBA 16-ch
Format/Info                 : Meridian Lossless Packing FBA with 16-channel presentation
Commercial name             : Dolby TrueHD with Dolby Atmos
Codec ID                    : A_TRUEHD
Duration                    : 2 h 45 min
Bit rate mode               : Variable
Bit rate                    : 5 025 kb/s
Maximum bit rate            : 8 262 kb/s
Channel(s)                  : 8 channels
Channel layout              : L R C LFE Ls Rs Lb Rb
Sampling rate               : 48.0 kHz
Frame rate                  : 1 200.000 FPS (40 SPF)
Compression mode            : Lossless
Stream size                 : 5.80 GiB (8%)
Language                    : English
Default                     : No
Forced                      : No
Number of dynamic objects   : 11
Bed channel count           : 1 channel
Bed channel configuration   : LFE

Text #1
ID                          : 4
Format                      : UTF-8
Codec ID                    : S_TEXT/UTF8
Codec ID/Info               : UTF-8 Plain Text
Duration                    : 2 h 34 min
Bit rate                    : 101 b/s
Count of elements           : 2193
Stream size                 : 115 KiB (0%)
Title                       : Повнi
Language                    : Ukrainian
Default                     : No
Forced                      : No

Text #2
ID                          : 5
Format                      : UTF-8
Codec ID                    : S_TEXT/UTF8
Codec ID/Info               : UTF-8 Plain Text
Duration                    : 2 h 22 min
Bit rate                    : 0 b/s
Count of elements           : 23
Stream size                 : 994 Bytes (0%)
Title                       : Форсованi
Language                    : Ukrainian
Default                     : Yes
Forced                      : Yes

Text #3
ID                          : 6
Format                      : UTF-8
Codec ID                    : S_TEXT/UTF8
Codec ID/Info               : UTF-8 Plain Text
Duration                    : 2 h 34 min
Bit rate                    : 62 b/s
Count of elements           : 2206
Stream size                 : 70.9 KiB (0%)
Title                       : Повнi
Language                    : English
Default                     : No
Forced                      : No

Text #4
ID                          : 7
Format                      : UTF-8
Codec ID                    : S_TEXT/UTF8
Codec ID/Info               : UTF-8 Plain Text
Duration                    : 1 h 17 min
Bit rate                    : 0 b/s
Count of elements           : 9
Stream size                 : 372 Bytes (0%)
Title                       : Форсованi
Language                    : English
Default                     : No
Forced                      : No
Скріншоти




Трансформери: Останній лицар / Transformers: The Last Knight (2017) UHD Remux 2160p 4K HDR H.265 Ukr/Eng | Sub Ukr/Eng


Трансформери: Останній лицар / Transformers: The Last Knight (2017) UHD Remux 2160p 4K HDR H.265 Ukr/Eng | Sub Ukr/Eng


Трансформери. Колекція / Transformers. Collection (2007/2009/2011/2014/2017) UHD Remux 2160p 4K HDR H.265 Ukr/Eng | Sub Eng

Жанр: екшн, пригодницький, фантастика
Країна: США



Кінокомпанія: Paramount Pictures, Hasbro, Di Bonaventura Pictures
Режисер: Майкл Бей
Актори: Марк Волберґ, Лаура Геддок, Ізабела Монер, Ентоні Гопкінс, Джош Дюамель, Стенлі Туччі, Софія Майлс, Джон Туртурро, Тайріз Гібсон, Джон Ґудмен та інші

Сюжет: Конфлікт між людьми і трансформерами наростає, і все говорить про майбутню війну. Про місцезнаходження Оптимуса Прайма нічого не відомо. Останньою надією на порятунок людства може стати історія про перших трансформерів на Землі, яка ретельно приховується. Наш світ може бути врятований завдяки спільним зусиллям професора з Оксфорда Вівіан Уемблі, Кейда Йегер і Бамблбі. Але яких зусиль не докладали б герої, виживе лише один з світів – трансформерів або наш.

Тривалість: 02:34:38
Якість: 4K UltraHD Remux 2160p
Відео:
кодек: H.265 (HEVC)
розмір кадру: 3840x2160
бітрейт: 62.1 Мб/с
бітова глибина: 10 біт
кольоровий простір: BT.2020 (HDR)

Аудіо:
мова: українська
переклад: професійний дубльований
кодек: 5.1
бітрейт: 448 кб/с

Аудіо:
мова: англійська
переклад: оригінал
кодек: TrueHD+Atmos / TrueHD 7.1
бітрейт: 4298 кб/с

Субтитри # 1-2:
мова: українська (Повнi, форсованi)
тип:програмні (м'які)
формат: *.srt

Субтитри# 3-4
мова: англiйcька
тип: програмні (м'які) (Повнi, форсованi)
формат: *.srt
Info

Код:
Format                      :
Format version              : Version 4
File size                   : 72.3 GiB
Duration                    : 2 h 34 min
Overall bit rate mode       : Variable
Overall bit rate            : 66.9 Mb/s
Encoded date                : UTC 2018-09-30 12:59:09
Writing application         : v7.8.0 ('River Man') 32bit built on Apr  3 2015 12:11:22
Writing library             : libebml v1.3.1 + v1.4.2
Cover                       : Yes
Attachments                 : cover.jpg

Video
ID                          : 1
Format                      : HEVC
Format/Info                 : High Efficiency Video Coding
Commercial name             : HDR10
Format profile              : Main [email protected]@High
Codec ID                    : V_MPEGH/ISO/HEVC
Duration                    : 2 h 34 min
Bit rate                    : 62.1 Mb/s
Width                       : 3 840 pixels
Height                      : 2 160 pixels
Display aspect ratio        : 16:9
Frame rate mode             : Constant
Frame rate                  : 23.976 (24000/1001) FPS
Color space                 : YUV
Chroma subsampling          : 4:2:0 (Type 2)
Bit depth                   : 10 bits
Bits/(Pixel*Frame)          : 0.312
Stream size                 : 67.1 GiB (93%)
Language                    : Ukrainian
Default                     : Yes
Forced                      : No
Color range                 : Limited
Color primaries             : BT.2020
Transfer characteristics    : PQ
Matrix coefficients         : BT.2020 non-constant
Mastering display color pri : Display P3
Mastering display luminance : min: 0.0001 cd/m2, max: 1000 cd/m2

Audio #1
ID                          : 2
Format                      : AC-3
Format/Info                 : Audio Coding 3
Commercial name             : Dolby Digital
Codec ID                    : A_AC3
Duration                    : 2 h 34 min
Bit rate mode               : Constant
Bit rate                    : 448 kb/s
Channel(s)                  : 6 channels
Channel layout              : L R C LFE Ls Rs
Sampling rate               : 48.0 kHz
Frame rate                  : 31.250 FPS (1536 SPF)
Bit depth                   : 16 bits
Compression mode            : Lossy
Delay relative to video     : -1 ms
Stream size                 : 495 MiB (1%)
Language                    : Ukrainian
Service kind                : Complete Main
Default                     : Yes
Forced                      : Yes

Audio #2
ID                          : 3
Format                      : MLP FBA 16-ch
Format/Info                 : Meridian Lossless Packing FBA with 16-channel presentation
Commercial name             : Dolby TrueHD with Dolby Atmos
Codec ID                    : A_TRUEHD
Duration                    : 2 h 34 min
Bit rate mode               : Variable
Bit rate                    : 4 298 kb/s
Maximum bit rate            : 6 528 kb/s
Channel(s)                  : 8 channels
Channel layout              : L R C LFE Ls Rs Lb Rb
Sampling rate               : 48.0 kHz
Frame rate                  : 1 200.000 FPS (40 SPF)
Compression mode            : Lossless
Delay relative to video     : -1 ms
Stream size                 : 4.64 GiB (6%)
Language                    : English
Default                     : No
Forced                      : No
Number of dynamic objects   : 11
Bed channel count           : 1 channel
Bed channel configuration   : LFE

Text #1
ID                          : 4
Format                      : UTF-8
Codec ID                    : S_TEXT/UTF8
Codec ID/Info               : UTF-8 Plain Text
Duration                    : 2 h 33 min
Bit rate                    : 102 b/s
Count of elements           : 2322
Stream size                 : 115 KiB (0%)
Title                       : Повнi
Language                    : Ukrainian
Default                     : No
Forced                      : No

Text #2
ID                          : 5
Format                      : UTF-8
Codec ID                    : S_TEXT/UTF8
Codec ID/Info               : UTF-8 Plain Text
Duration                    : 2 h 33 min
Bit rate                    : 1 b/s
Count of elements           : 34
Stream size                 : 1.32 KiB (0%)
Title                       : Форсованi
Language                    : Ukrainian
Default                     : Yes
Forced                      : Yes

Text #3
ID                          : 6
Format                      : UTF-8
Codec ID                    : S_TEXT/UTF8
Codec ID/Info               : UTF-8 Plain Text
Duration                    : 2 h 25 min
Bit rate                    : 73 b/s
Count of elements           : 2617
Stream size                 : 78.3 KiB (0%)
Language                    : English
Default                     : No
Forced                      : No
Скріншоти







З появою нових фільмів, роздача буде оновлюватись.


Особиста оцінка: 10 - без зайвих вагань рекомендую всім!


Джерело:


Золотий реліз (завантажене не впливає на рейтинг)
 Трекер:    Зареєстрований   

Завантажити / скачати фільм українською



відео для новачків



 Зареєстрований:   2018-09-30 18:56
 Розмір:   350.94 GB 
 Оцінка фільму:   9.5/10 (Голосів: 19)
   
igor911 
Відео Гуртом
Відео Гуртом


З нами з: 18.01.08
Востаннє: 22.10.18
Повідомлень: 11263

2018-09-30 08:06  
Documentalist, 1) перезалий скріншоти з imageshack на img.hurtom.com, вони вже раз видалили всі зображення. Залогінившись на img.hurtom.com макс.дозволений розмір зображення зростає з 5 до 15 мб.
2) заміни скрізь в заголовках "| Sub Eng" на "| Sub Ukr/Eng"
3)
Documentalist написано:
Трансформери: Темна сторона луни / Dark of the Moon (2011)

серйозно? отак і озвучили українською "луни"? Happy))
Виправ укр.назву на офіційну "Трансформери 3" та оригінальну на "Transformers: Dark of the Moon"
4) звіти Info або візми між тегами
Код:
[code]тут текст звіту[/code]
або хоч вирівняй по лівій стороні.

Додано через 15 хвилин 50 секунд:

5) форсовані укр.саби слід було вмикати за замовчанням і ставити їх примусовими - вони робляться на неозвучені українською фрази або написи на екрані і впливають на розуміння сюжету.

[email protected] 
Відео Гуртом - підтримка та поширення
Відео Гуртом - підтримка та поширення


З нами з: 16.06.12
Востаннє: 19.10.18
Повідомлень: 1277

2018-09-30 10:17  
Доволі обємна роздача.
Не думали розбити її на окремі фільми?
Сумніваюсь, що багато користувачів знають як завантажувати лише один фільм з роздачі.

Documentalist 
Частий відвідувач


З нами з: 04.06.17
Востаннє: 22.10.18
Повідомлень: 48

2018-09-30 10:18  
Поперше, давайте не будемо "тикати" одне одному.

Подруге.Що до скріншотів.Вони дуже важкі,та розмір привищує вказане обмеження у 5 мб.

3.Офіційна назва???Так "луни", виправлю на місяця.Оце буде як раз.
https://uk.wikipedia.org/wiki/%D0%A2%D1%80%D0%B0%D0%BD%D1%81%D1%84%D0%BE%D1%80%D0%BC%D0%B5%D1%80%D0%B8:_%D0%A2%D0%B5%D0%BC%D0%BD%D0%B8%D0%B9_%D0%B1%D1%96%D0%BA_%D0%9C%D1%96%D1%81%D1%8F%D1%86%D1%8F
4.Мінфо .Дивився на інших завантаженнях, багато стоїть саме у центрі.Добре,це перероблю.
5. Оце новина, ставити примусово субтітри.Це де ж такі нові стандарти ріпування Ви узяли?

[email protected] 
Відео Гуртом - підтримка та поширення
Відео Гуртом - підтримка та поширення


З нами з: 16.06.12
Востаннє: 19.10.18
Повідомлень: 1277

2018-09-30 10:23  
Documentalist, але загалом дякую, що виклали таку об'ємну роздачу.
Небагато людей на таке готова піти Happy

Documentalist 
Частий відвідувач


З нами з: 04.06.17
Востаннє: 22.10.18
Повідомлень: 48

2018-09-30 10:33  
[email protected]
Принципово нi. У 21 столітті,не думаю ,що хтось не знає ,як завантажити ,окремо файл у торент клієнті.Та якщо таке i трапиться, завжди можна додати
мануал, як це зробити окремим файлом.

Додано через 4 хвилини 32 секунди:

Поважнi користувачi ,велике прохання ,не завантажувати.Буду переробляти назви,та перезавантажувати ,новим торентом!

[email protected] 
Відео Гуртом - підтримка та поширення
Відео Гуртом - підтримка та поширення


З нами з: 16.06.12
Востаннє: 19.10.18
Повідомлень: 1277

2018-09-30 10:35  
Documentalist Maxym_Accordeonist завантажує, не писали йому?
Documentalist 
Частий відвідувач


З нами з: 04.06.17
Востаннє: 22.10.18
Повідомлень: 48

2018-09-30 13:15  
[email protected]
Написав.Але вiн не у мережi зараз.

Додано через 9 хвилин 18 секунд:

[email protected]
Завжди нема за що! =)

Додано через 13 хвилин 49 секунд:

На кожен файл перепаковки, піде по 25хв. Та потiм створення самого торенту 2.5години. Потiм хешування, двi години. Тобто повернусь у вечорi, через 6.5 год! =)

Додано через 2 години 11 хвилин 44 секунди:

Пропоную ,ось такий мануал узяти на озброєння
Перегляд 4K HDR-контенту на ПК Мануал

Для перегляду HDR-контенту необхідний телевізор з підтримкою HDR. Просто запишіть на usb-накопичувач викачане відео і встановіть його в ваш ТВ. На звичайних дисплеях зображення буде виглядати неконтрастним і знебарвленим.

Вирішення цієї проблеми, зараз можливо на PC під ОС Windows, використовуючи плеєр, який підтримує висновок зображення через рендер madvr (http://madvr.com), який може виконувати програмну конверсію, у кольоровий простір і гаму REC.709.

Ми рекомендуємо Media Player Classic Home Cinema.

Після встановлення рекомендованих плеєрів, необхідно окремо встановити madvr.
Для цього скачайте з сайту архів, розпакуйте його в зручне місце і запустіть install.bat від облікового запису адміністратора.
Після установки, папку з вмістом не видаляти!
Якщо папку необхідно перенести в інше місце, то після перенесення необхідно знову запустити install.bat.
Для того, щоб зображення виводилося за допомогою madvr, його необхідно вибрати в налаштуваннях плеєра:

Electroz 
Відео Гуртом - підтримка та поширення
Відео Гуртом - підтримка та поширення


З нами з: 18.09.14
Востаннє: 22.10.18
Повідомлень: 3034

2018-09-30 13:38  
Documentalist написано:
На кожен файл перепаковки, піде по 25хв

Щоб змінити назву чи зробити примусовими субтитри, не потрібно переміксовувати.

sergiyko.5 
VIP


З нами з: 25.02.16
Востаннє: 22.10.18
Повідомлень: 1791

2018-09-30 13:54  
Documentalist написано:
Потiм хешування, двi години

Вітаю. В торент-клієнті при додачі торент-файлу є пункт типу "Додати без перехешування", і якщо нема помилок роздача починається відразу.


Documentalist 
Частий відвідувач


З нами з: 04.06.17
Востаннє: 22.10.18
Повідомлень: 48

2018-09-30 14:01  
sergiyko.5 Ось за це велика подяка!Цього не знав!Ви зекономили менi час!!!

Electroz
Та як же не потрiбно,якщо воно вимкнено у самому контейнерi.

Electroz 
Відео Гуртом - підтримка та поширення
Відео Гуртом - підтримка та поширення


З нами з: 18.09.14
Востаннє: 22.10.18
Повідомлень: 3034

2018-09-30 14:05  
Documentalist
У програмі є редактор заголовків, де можна увімкнути субтитри за пару секунд.

Documentalist 
Частий відвідувач


З нами з: 04.06.17
Востаннє: 22.10.18
Повідомлень: 48

2018-09-30 14:15  
Electroz
Оце так!
Але ба, igor911 його це не влаштувало.
Вже зробив 3 частини.

[email protected] 
Відео Гуртом - підтримка та поширення
Відео Гуртом - підтримка та поширення


З нами з: 16.06.12
Востаннє: 19.10.18
Повідомлень: 1277

2018-09-30 17:43  
Documentalist додав ваш мануал в головну тему.
sergiyko.5 
VIP


З нами з: 25.02.16
Востаннє: 22.10.18
Повідомлень: 1791

2018-09-30 17:51  
[email protected]
Цитата:
Мануал — керівництво з експлуатації

Де знаходиться головна тема!?

Documentalist 
Частий відвідувач


З нами з: 04.06.17
Востаннє: 22.10.18
Повідомлень: 48

2018-09-30 18:48  
[email protected]
Оце одразу бачно, людина справи!!!
Дякую за розумiння!

Додано через 46 хвилин 38 секунд:

1. Скрiни перезавантажив.
2. Заголовки виправлено.
3. Назву змiнив.
4. Звiти переробив.
5. Перемуксував,як прохали ,(примусовi форсованi,за замовчанням)...........

11FrYkT 
Модератор відео


З нами з: 20.02.11
Востаннє: 21.10.18
Повідомлень: 5093

2018-09-30 19:15  
Documentalist написано:

Оце так!
Але ба, igor911 його це не влаштувало.
Вже зробив 3 частини.

Вам вказали на зауваження і не потрібно тут показувати які Ви грамотні

Documentalist 
Частий відвідувач


З нами з: 04.06.17
Востаннє: 22.10.18
Повідомлень: 48

2018-09-30 19:41  
11FrYkT
Що?))))Оце подяка така?Агоу панове,та ото ось так, жоден поважаючій себе релізер, вам нічого не буде заносити.Майте повагу!!!!Бо як подивлюсь,Ви ось тут дуже самовпевнені...

11FrYkT 
Модератор відео


З нами з: 20.02.11
Востаннє: 21.10.18
Повідомлень: 5093

2018-09-30 19:44  
Documentalist написано:
Що?))))Оце подяка така?Агоу панове,та ото ось так, жоден поважаючій себе релізер, вам нічого не буде заносити.Майте повагу!!!!Бо як подивлюсь,Ви ось тут дуже самовпевнені...

не поважаєте працю інших поки тільки Ви

Documentalist 
Частий відвідувач


З нами з: 04.06.17
Востаннє: 22.10.18
Повідомлень: 48

2018-09-30 19:50  
11FrYkT
Ха...
А де праця?Вказати, що в мквешці саби не стояли по замовченню?...Ну все зрозуміло з Вами панове.
Мене попереджували, що адмінка хамувата, але щоб ось так...Бувайте здорові!!!

[email protected] 
Відео Гуртом - підтримка та поширення
Відео Гуртом - підтримка та поширення


З нами з: 16.06.12
Востаннє: 19.10.18
Повідомлень: 1277

2018-10-01 09:13  
sergiyko.5 написано:
Де знаходиться головна тема!?

Підпис дивіться.

Documentalist 
Частий відвідувач


З нами з: 04.06.17
Востаннє: 22.10.18
Повідомлень: 48

2018-10-02 22:51  
Оце що до поваги....

Чому не перевiрили досi?Чи кожен день такi релiзи вам заносять?

igor911 
Відео Гуртом
Відео Гуртом


З нами з: 18.01.08
Востаннє: 22.10.18
Повідомлень: 11263

2018-10-02 23:54  
Documentalist написано:
Чому не перевiрили досi?

6) загальний постер перевищує допустимі 400 кб - треба або зменшити або вставляти зображення середнього розміру з посиланням на оригінал (на img.hurtom.com обирати п. "BBode Середнє зображення (посилання)");
7) вказати джерело українських доріжок у всіх частинах;
8)
Documentalist написано:
бітрейт: 66.6 Мб/с

невірно вказано бітрейт відео у 1й частині (має бути 61,8 Мб/с) ;
9) 1а частина- виправити невірне форматування в описі субтитрів;
10) залогінитись на img.hurtom.com (після логіну піднімається обмеження на розмір зображення з 5 до 15 Мб) і перенести решту скріншотів з imageshack - вони вже видаляли зображення користувачів і можуть це зробити ще раз;

в 3й частині:
10)
Цитата:
Трансформери 3: Темний бік місяця / Dark of the Moon (2011)
оригінальну назву виправити згідно імдб;
11)
Documentalist написано:
кольоровий простір: BT.2020 (HDR)
перенести інфу про кольоровий простір під хар-ки відео (у всіх частинах);
12) замінити скріншоти з jpg на png;
13) 5а частина - додати режисера та акторів;
14) 5а ч. - виправити бітрейт англ.доріжки з 6528 на 4298 кб/с;

Додано через 4 хвилини 2 секунди:

Documentalist написано:
давайте не будемо "тикати" одне одному.

звертання на "ти" загальноприйняте у світі та в інтернеті між анонімами і не є образою

Додано через 5 хвилин 29 секунд:

Documentalist написано:
igor911 його це не влаштувало (укр.форс.саби за замовчуванням).

Documentalist написано:
Ви ось тут дуже самовпевнені...

Documentalist написано:
Оце подяка така?Агоу панове,та ото ось так, жоден поважаючій себе релізер, вам нічого не буде заносити

здається, у когось напади зіркової хвороби

Documentalist 
Частий відвідувач


З нами з: 04.06.17
Востаннє: 22.10.18
Повідомлень: 48

2018-10-03 13:30  
звертання на "ти" загальноприйняте у світі та в інтернеті між анонімами і не є образою
здається, у когось напади зіркової хвороби

ХаХа.
Та нi "тикають" тiльки не вихованi.На мене не треба!!!

Додано через 34 хвилини 50 секунд:

6) загальний постер перевищує допустимі 400 кб - треба або зменшити або вставляти зображення середнього розміру з посиланням на оригінал (на img.hurtom.com обирати п. "BBode Середнє зображення (посилання)");
До чого у оформленi ,вказали до Обкладинка:
До 500 КБ.
,внесiть правки,щоб люди одразу це мали на увазi!!!


7) вказати джерело українських доріжок у всіх частинах;
Обкладинка:
До 500 КБ.
8)
бітрейт: 66.6 Мб/с
невірно вказано бітрейт відео у 1й частині (має бути 61,8 Мб/с) ;
Виправив

9) 1а частина- виправити невірне форматування в описі субтитрів;
Виправив
10) залогінитись на img.hurtom.com (після логіну піднімається обмеження на розмір зображення з 5 до 15 Мб) і перенести решту скріншотів з imageshack - вони вже видаляли зображення користувачів і можуть це зробити ще раз;
Давно зроблено вже.

в 3й частині:
10)

Трансформери 3: Темний бік місяця / Dark of the Moon (2011)
оригінальну назву виправити згідно імдб;
Виправив

11)
кольоровий простір: BT.2020 (HDR)
перенести інфу про кольоровий простір під хар-ки відео (у всіх частинах);
Виправив

12) замінити скріншоти з jpg на png;
Вони i так у PNG

13) 5а частина - додати режисера та акторів;
Виправив

14) 5а ч. - виправити бітрейт англ.доріжки з 6528 на 4298 кб/с;
Виправив

igor911 
Відео Гуртом
Відео Гуртом


З нами з: 18.01.08
Востаннє: 22.10.18
Повідомлень: 11263

2018-10-03 14:33  
Цитата:
перенести решту скріншотів з imageshack - вони вже видаляли зображення користувачів і можуть це зробити ще раз;

Documentalist написано:
Давно зроблено вже.

брехня, в першій частині скріншоти досі на imageshack


Цитата:
12) замінити скріншоти з jpg на png;

Documentalist написано:
Вони i так у PNG

знову брехня, в 3й частині скріншоти в jpg


Додано через 1 хвилину 58 секунд:

Код:
[code]02:11:29.590                : en:"Aim For The Eyes!"
02:19:10.884                : en:Closing Of Old Accounts
02:25:37.520                : en:Finale/End Credits[/code][/spoiler]

[spoiler=Скріншоти][center][url=https://img.hurtom.com/image/C7rN][img]https://img.hurtom.com/i/2018/09/1-1.md.jpg[/img][/url]
[url=https://img.hurtom.com/image/C7rX][img]https://img.hurtom.com/i/2018/09/1-2.md.jpg[/img][/url]
[url=https://img.hurtom.com/image/C7rf][img]https://img.hurtom.com/i/2018/09/1-3.md.jpg[/img][/url][/spoiler][/center][/spoiler]


Додано через 11 хвилин 6 секунд:

Правила оформлення відео-релізу, п.Правила оформлення написано:
3. Обкладинка
Вказується обкладинка з файлу, що розміщений на вашому комп'ютері. Бажано обирати українську обкладинку, або ж у разі її відсутності оригінальну (мовою оригіналу). Об'єм допускається до 400 КБ, але рекомендується до 200 КБ. У роздільній здатності обкладинки обмежень немає.

sergiyko.5 
VIP


З нами з: 25.02.16
Востаннє: 22.10.18
Повідомлень: 1791

2018-10-03 14:34  
igor911
Ви розумієте різницю між брехнею і помилкою!? Мабуть ні. Толока і українська інтернетспільнота в мінусі через дії "правителів" толоки. Подумайте не про своє его, а про спільну справу. Треба не ображати, звинувачувати, а допомагати релізерам.

igor911 
Відео Гуртом
Відео Гуртом


З нами з: 18.01.08
Востаннє: 22.10.18
Повідомлень: 11263

2018-10-03 14:37  
sergiyko.5, сподіваюсь ти теж розумієш, коли вдруге вказують на конкретну помилку, а людина пише що "давно зроблено".

Додано через 1 хвилину 7 секунд:

sergiyko.5 написано:
Треба не ображати, звинувачувати, а допомагати релізерам.

завжди так і роблю.

sergiyko.5 
VIP


З нами з: 25.02.16
Востаннє: 22.10.18
Повідомлень: 1791

2018-10-03 14:39  
Я розумію, що досвідчена людина може написати у приват і не нагнітати негатив на толоці.
igor911 
Відео Гуртом
Відео Гуртом


З нами з: 18.01.08
Востаннє: 22.10.18
Повідомлень: 11263

2018-10-03 14:45  
sergiyko.5, завжди пишу зауваження в темі, щоб інші модератори не витрачали свій час на перевірку реліза, який вже почав перевіряти я.

Додано через 2 хвилини 27 секунд:

і відколи це зауваження щодо оформлення реліза стали негативом? можливо треба просто адекватно на них реагувати?

sergiyko.5 
VIP


З нами з: 25.02.16
Востаннє: 22.10.18
Повідомлень: 1791

2018-10-03 14:48  
Поважай людей, звертайся на ви. Релізери не для тебе попрацювали, а для загалу. Правила десь застаріли, змінились підходи і розміри скрінів. І буде все добре.
Ваш часовий пояс: GMT + 2 Години

Нова тема   Відповісти Сторінка:  1, 2  наступна