Монстри на канікулах 3 / Hotel Transylvania 3: Summer Vacation (2018) Remux 1080p Ukr/Eng | Sub Ukr/Eng

Нові коментарі

Нова тема   Відповісти
Автор Повідомлення
Anonymous 







2018-09-29 23:48  
Монстри на канікулах 3 / Hotel Transylvania 3: Summer Vacation (2018) Remux 1080p Ukr/Eng | Sub Ukr/Eng

Монстри на канікулах 3 / Hotel Transylvania 3: Summer Vacation (2018) Remux 1080p Ukr/Eng | Sub Ukr/Eng
Усі українські постери:

















Жанр: анімація, фентезі, комедія, сімейний, пригодницький
Країна: США



Кінокомпанія: Columbia Pictures Corporation,Media Rights Capital (MRC),Sony Pictures Animation
Режисер: Геннадій Тартаковський / Genndy Tartakovsky
Актори: Мел Брукс / Mel Brooks, Адам Сендлер / Adam Sandler, Селена Гомес / Selena Gomez, Енді Семберг / Andy Samberg, Кетрін Ган / Kathryn Hahn, Френ Дрешер / Fran Drescher, Стів Бушемі / Steve Buscemi, Девід Спейд / David Spade, Тара Стронг / Tara Strong, Кіген-Майкл Кі / Keegan-Michael Key, Джо Джонас / Joe Jonas? Геннадій Тартаковський / Genndy Tartakovsky та інші

Сюжет:
Дракула разом з Мевіс, Джонні, Деннісом і своїми друзями відправляється в шикарний круїз на лайнері для монстрів. На його борту вампір зустрічає загадкового капітана Еріку, в яку тут же закохується, не підозрюючи, що вона є нащадком самого Абрахама Ван Хельсинга, давнього ворога Дракули та всіх монстрів.
Офіційні українські трейлери та відео:

трейлер 1:


трейлер 2:


пісня Кракена, виконує MÉLOVIN Костянтин Бочаров:


промо 1:


Голос Еріки - Леся Нікітюк - на Каннському кінофестивалі:


Монстри на канікулах 3: Поради перед відпусткою:


промо Леся Нікітюк:


промо 2:


Руслан Сенічкін:


ще промо 3:


Монстри на канікулах вітають з Днем Конституції України:


Монстри на канікулах 3: готуймося до фіналу Ліги Чемпіонів 2018:

Рейтинг MPAA: PG - рекомендується присутність батьків
Вікова категорія: 6+

Тривалість: 01:37:20
Якість: Remux 1080p

Відео:
кодек:
розмір кадру: 1920х1080
бітрейт: 24,9 Мб/с

Аудіо #1:
мова: українська
переклад: професійний дубльований | студія LeDoyen
кодек: 5.1
бітрейт: 640 кб/с
Інформація про дубляж
Ролі дублювали:
Еріка / Кетрін Ган - Леся Нікітюк,
Вейн / Стів Бушемі - Руслан Сенічкін,
Кракен / Джо Джонас (пісня) - MÉLOVIN (Костянтин Бочаров)





Аудіо #2:
мова: англійська
переклад: оригінал
кодек: -HD MA 5.1
бітрейт: 2278 кб/с

Аудіо #3:
мова: англійська
переклад: оригінал
кодек: 5.1
бітрейт: 640 кб/с

Субтитри # 1:
мова: українська
тип: пререндерні
формат: PGS

Субтитри # 2:
мова: українська
тип: програмні (м'які)
формат: *.srt

Субтитри # 2-3:
мова: англійська (повні, SDH)
тип: програмні (м'які)
формат: *.srt

Збережено оригінальні розділи, як на Blu-ray
Info
Код:
Complete name               : Hotel Transylvania 3. Summer Vacation (2018) [Ukr,Eng sub.Ukr,Eng] Remux 1080p [Hurtom].
Format                      :
Format version              : Version 4
File size                   : 19.4 GiB
Duration                    : 1 h 37 min
Overall bit rate mode       : Variable
Overall bit rate            : 28.5 Mb/s
Movie name                  : Монстри на канікулах 3 / Hotel Transylvania 3: Summer Vacation (2018) [Ukr,Eng sub.Ukr,Eng] Remux 1080p [Hurtom]
Released date               : 2018
Encoded date                : UTC 2018-11-10 19:39:28
Writing application         : v28.2.0 ('The Awakening') 64-bit
Writing library             : libebml v1.3.6 + v1.4.9
Cover                       : Yes
Comment                     : https://www.imdb.com/title/tt5220122/
Attachments                 : cover.jpg
DIRECTOR                    : Геннадій Тартаковський / Genndy Tartakovsky
GENRE                       : анімація, фентезі, комедія, сімейний, пригодницький
SYNOPSIS                    : Дракула разом з Мевіс, Джонні, Деннісом і своїми друзями відправляється в шикарний круїз на лайнері для монстрів. На його борту вампір зустрічає загадкового капітана Еріку, в яку тут же закохується, не підозрюючи, що вона є нащадком самого Абрахама Ван Хельсинга, давнього ворога Дракули та всіх монстрів...
Url                         : https://toloka.to/t95398

Video
ID                          : 1
Format                      : AVC
Format/Info                 : Advanced Video Codec
Format profile              : [email protected]
Format settings             : CABAC / 2 Ref Frames
Format settings, CABAC      : Yes
Format settings, ReFrames   : 2 frames
Format settings, GOP        : M=1, N=10
Codec ID                    : V_MPEG4/ISO/AVC
Duration                    : 1 h 37 min
Bit rate mode               : Variable
Bit rate                    : 24.9 Mb/s
Width                       : 1 920 pixels
Height                      : 1 080 pixels
Display aspect ratio        : 16:9
Frame rate mode             : Constant
Frame rate                  : 23.976 (24000/1001) FPS
Color space                 : YUV
Chroma subsampling          : 4:2:0
Bit depth                   : 8 bits
Scan type                   : Progressive
Bits/(Pixel*Frame)          : 0.501
Stream size                 : 16.9 GiB (87%)
Title                       : Монстри на канікулах 3 / Hotel Transylvania 3: Summer Vacation (2018) Remux 1080p
Language                    : English
Default                     : Yes
Forced                      : No

Audio #1
ID                          : 2
Format                      : AC-3
Format/Info                 : Audio Coding 3
Commercial name             : Dolby Digital
Codec ID                    : A_AC3
Duration                    : 1 h 37 min
Bit rate mode               : Constant
Bit rate                    : 640 kb/s
Channel(s)                  : 6 channels
Channel layout              : L R C LFE Ls Rs
Sampling rate               : 48.0 kHz
Frame rate                  : 31.250 FPS (1536 SPF)
Bit depth                   : 16 bits
Compression mode            : Lossy
Delay relative to video     : -16 ms
Stream size                 : 446 MiB (2%)
Title                       : Dub [LeDoyen, 4k UHD Blu-ray] 5.1 640 Kbps
Language                    : Ukrainian
Service kind                : Complete Main
Default                     : Yes
Forced                      : Yes

Audio #2
ID                          : 3
Format                      : XLL
Format/Info                 : Digital Theater Systems
Commercial name             : -HD Master Audio
Codec ID                    : A_DTS
Duration                    : 1 h 37 min
Bit rate mode               : Variable
Bit rate                    : 2 278 kb/s
Channel(s)                  : 6 channels
Channel layout              : C L R Ls Rs LFE
Sampling rate               : 48.0 kHz
Frame rate                  : 93.750 FPS (512 SPF)
Bit depth                   : 16 bits
Compression mode            : Lossless
Stream size                 : 1.55 GiB (8%)
Title                       : Original. -HD MA 5.1 2278 Kbps
Language                    : English
Default                     : No
Forced                      : No

Audio #3
ID                          : 4
Format                      : AC-3
Format/Info                 : Audio Coding 3
Commercial name             : Dolby Digital
Codec ID                    : A_AC3
Duration                    : 1 h 37 min
Bit rate mode               : Constant
Bit rate                    : 640 kb/s
Channel(s)                  : 6 channels
Channel layout              : L R C LFE Ls Rs
Sampling rate               : 48.0 kHz
Frame rate                  : 31.250 FPS (1536 SPF)
Bit depth                   : 16 bits
Compression mode            : Lossy
Delay relative to video     : -16 ms
Stream size                 : 446 MiB (2%)
Title                       : Original, 5.1 640 Kbps
Language                    : English
Service kind                : Complete Main
Default                     : No
Forced                      : No

Text #1
ID                          : 5
Format                      : PGS
Muxing mode                 : zlib
Codec ID                    : S_HDMV/PGS
Codec ID/Info               : Picture based subtitle format used on BDs/HD-DVDs
Duration                    : 1 h 36 min
Bit rate                    : 32.8 kb/s
Count of elements           : 2237
Stream size                 : 22.7 MiB (0%)
Title                       : Ukr full [4k UHD Blu-ray]
Language                    : Ukrainian
Default                     : No
Forced                      : No

Text #2
ID                          : 6
Format                      : UTF-8
Codec ID                    : S_TEXT/UTF8
Codec ID/Info               : UTF-8 Plain Text
Duration                    : 1 h 36 min
Bit rate                    : 71 b/s
Count of elements           : 1118
Stream size                 : 50.4 KiB (0%)
Title                       : Ukr full [іТunеs]
Language                    : Ukrainian
Default                     : No
Forced                      : No

Text #3
ID                          : 7
Format                      : UTF-8
Codec ID                    : S_TEXT/UTF8
Codec ID/Info               : UTF-8 Plain Text
Duration                    : 1 h 30 min
Bit rate                    : 52 b/s
Count of elements           : 1295
Stream size                 : 35.1 KiB (0%)
Title                       : Eng full
Language                    : English
Default                     : No
Forced                      : No

Text #4
ID                          : 8
Format                      : UTF-8
Codec ID                    : S_TEXT/UTF8
Codec ID/Info               : UTF-8 Plain Text
Duration                    : 1 h 30 min
Bit rate                    : 65 b/s
Count of elements           : 1629
Stream size                 : 43.8 KiB (0%)
Title                       : Eng SDH
Language                    : English
Default                     : No
Forced                      : No

Menu
00:00:00.000                : en:en:00:00:00.000
00:04:28.935                : en:en:00:04:28.935
00:09:34.824                : en:en:00:09:34.824
00:16:02.044                : en:en:00:16:02.044
00:20:03.075                : en:en:00:20:03.075
00:24:34.930                : en:en:00:24:34.930
00:31:12.535                : en:en:00:31:12.535
00:36:49.205                : en:en:00:36:49.205
00:44:04.723                : en:en:00:44:04.723
00:49:57.699                : en:en:00:49:57.699
00:54:49.740                : en:en:00:54:49.740
01:00:34.875                : en:en:01:00:34.875
01:06:12.003                : en:en:01:06:12.003
01:10:32.262                : en:en:01:10:32.262
01:13:46.371                : en:en:01:13:46.371
01:24:56.541                : en:en:01:24:56.541




Джерело: &

10.11.2018 реліз оновлено - український звук зі стерео замінено на 5.1 з 4k UHD , також звідти додано українські пререндерні субтитри




Золотий реліз (завантажене не впливає на рейтинг)
 Трекер:    Зареєстрований   

Завантажити / скачати мультфільм українською



відео для новачків



 Зареєстрований:   2018-11-10 22:08
 Розмір:   19.38 GB 
 Оцінка мультфільму:   9.6/10 (Голосів: 18)
 ЗАЛИШАЙТЕСЬ ЯКОМОГА ДОВШЕ НА РОЗДАЧІ! ЗАВАНТАЖИВ САМ - ДАЙ ЗАВАНТАЖИТИ ІНШИМ.
   
sanyokfuriv 
Новенький


З нами з: 05.07.11
Востаннє: 15.11.18
Повідомлень: 10

2018-10-03 22:17  
Дорогі друзі, а чому такий бітрейт звуку дубляжу низький, лише нещасні 192кб/с? Невже теперішні технології не дозволяють хоча б 640кб/с записати, я вже мовчу про Dolby Atmos?Це всім плювати на українську чи як ?
Anonymous 







2018-10-04 08:29  
sanyokfuriv написано:
Невже теперішні технології не дозволяють хоча б 640кб/с записати

звідки записати? на сьогодні укр.звук доступний лише в такій якості, як тут, джерело вказане в описі. Є інформація, що укр.звук в 5.1 (мабуть в АС3) буде на іспанському 4K UHD блуреї, який анонсовано на 07.11.

77997997 
VIP


З нами з: 26.02.13
Востаннє: 16.11.18
Повідомлень: 590

2018-10-04 10:05  
Пане sanyokfuriv, тому, що НІ Ви ні будь-хто інший не купляє фільми легально в онлайн платформах... І це потребує певних затрат від дистрибютора, яких він від таких як Ви НЕ ВІДІБ'Є... Адже Ви та багато інших завантажуть фільм з торрент трекеру, а не куплять його в онлайн платформі... І багато дрібніших дистрибюторів, не додають українську доріжку на iTunes, бо це потім їм НЕ ОКУПИТЬСЯ...
sergio777p 
Новенький


З нами з: 05.10.16
Востаннє: 13.11.18
Повідомлень: 16

2018-10-04 14:48  
Хоча перші дві частини мені дуже сподобалися, ця частина взагалі ні на що путнє не схожа. Єдиний смішний епізод я побачив в самом кінці мультфільму. Все інше: більш-менш кумедні рухи героїв, але цього більш ніж не достатньо, для цікавого перегляду. Хоч задумка була не погана по сюжету, його розкриття підлягає самій низькій критиці. Поставив 3 з 10.
Anonymous 







2018-11-10 22:12  
Реліз оновлено - український стереозвук з замінено на 5.1 з 4k UHD , також звідти додано українські пререндерні субтитри
Ваш часовий пояс: GMT + 2 Години

Нова тема   Відповісти