Чорний кіт Рудольф (Жив собі кіт, Rudolf the Black Cat) / Rudorufu to Ippaiattena (2016) 1080p Ukr/Jpn

Нові коментарі

Нова тема   Відповісти
Автор Повідомлення
staf777 
Відео Гуртом - підтримка та поширення
Відео Гуртом - підтримка та поширення


З нами з: 16.11.16
Востаннє: 02.03.21
Повідомлень: 5068

2018-09-29 22:54  
Чорний кіт Рудольф (Жив собі кіт, Rudolf the Black Cat) / Rudorufu to Ippaiattena (2016) 1080p Ukr/Jpn

Чорний кіт Рудольф (Жив собі кіт, Rudolf the Black Cat) / Rudorufu to Ippaiattena (2016) 1080p Ukr/Jpn


Жанр: пригодницький, комедія
Країна: Японія, Канада



Кінокомпанія: Bandai, Chukyo TV Broadcasting Company (CTV), D.N. Dream Partners
Режисер: Мікінорі Сакакібара, Куніхіко Юяма
Сюжет:
Історія маленького чорного кошеня з гордим ім'ям Рудольф, який жив щасливо і спокійно рівно до тих пір, поки через фатальну випадковість він не виявився в невідомому великому місті. Тут герою доведеться виживати без ласки і турботи господарів, але ж раніше він був твердо переконаний, що завжди буде в цілковитій безпеці.


Тривалість: 01:28:39
Якість: 1080
Відео:
кодек:
розмір кадру: 1920х1080
бітрейт: 12,8 Mб/с

Аудіо # 1:
мова: українська
переклад: багатоголосий закадровий
кодек: 2.0
бітрейт: 192 кб/с

Аудіо # 2:
мова: японська
переклад: оригінал
кодек: 5.1
бітрейт: 1509 кб/с
Info
General
Unique ID : 283334001996715994371976694635036232605 (0xD52824D4B8684D73FC673F8C11894B9D)
Complete name : S:\Кинозал\Rudolf the Black Cat (2016) 1080p [Ukr] [Jpn] [Hurtom].
Format :
Format version : Version 4 / Version 2
File size : 8.97 GiB
Duration : 1 h 28 min
Overall bit rate : 14.5 Mb/s
Movie name : Rudolf the Black Cat (2016) 1080p [Ukr] [Jpn] [Hurtom]
Encoded date : UTC 2018-09-29 20:03:39
Writing application : v24.0.0 ('Beyond The Pale') 64-bit
Writing library : libebml v1.3.6 + v1.4.9
Cover : Yes
Attachments : cover.jpg

Video
ID : 1
Format : AVC
Format/Info : Advanced Video Codec
Format profile : [email protected]
Format settings : CABAC / 4 Ref Frames
Format settings, CABAC : Yes
Format settings, ReFrames : 4 frames
Codec ID : V_MPEG4/ISO/AVC
Duration : 1 h 28 min
Bit rate : 12.8 Mb/s
Width : 1 920 pixels
Height : 1 080 pixels
Display aspect ratio : 16:9
Frame rate mode : Constant
Frame rate : 23.976 (24000/1001) FPS
Color space : YUV
Chroma subsampling : 4:2:0
Bit depth : 8 bits
Scan type : Progressive
Bits/(Pixel*Frame) : 0.257
Stream size : 7.91 GiB (88%)
Title : Rudolf.the.Black.Cat.2016.1080p..Master5
Writing library : core 129 r2245+704+36 8e61944 tMod+MixAQ [[email protected]:2:0 X86_64]
Encoding settings : cabac=1 / ref=4 / deblock=1:-1:-1 / analyse=0x3:0x133 / me=umh / subme=11 / psy=1 / fade_compensate=0.00 / psy_rd=1.00:0.00 / mixed_ref=1 / me_range=64 / chroma_me=1 / trellis=2 / 8x8dct=1 / cqm=0 / deadzone=21,11 / fast_pskip=0 / chroma_qp_offset=-2 / threads=18 / lookahead_threads=3 / sliced_threads=0 / nr=0 / decimate=0 / interlaced=0 / bluray_compat=0 / constrained_intra=0 / fgo=0 / bframes=10 / b_pyramid=2 / b_adapt=2 / b_bias=0 / direct=3 / weightb=1 / open_gop=0 / weightp=2 / keyint=250 / keyint_min=23 / scenecut=40 / intra_refresh=0 / rc=2pass / mbtree=0 / bitrate=12772 / ratetol=1.0 / qcomp=0.70 / qpmin=0 / qpmax=69 / qpstep=4 / cplxblur=20.0 / qblur=0.5 / ip_ratio=1.40 / pb_ratio=1.30 / aq=1 / aq-strength=0.95 / aq-sensitivity=10.00 / aq-ifactor=1.00 / aq-pfactor=1.00 / aq-bfactor=1.00 / aq2=0
Language : Japanese
Default : Yes
Forced : No

Audio #1
ID : 2
Format : AC-3
Format/Info : Audio Coding 3
Codec ID : A_AC3
Duration : 1 h 28 min
Bit rate mode : Constant
Bit rate : 192 kb/s
Channel(s) : 2 channels
Channel positions : Front: L R
Sampling rate : 48.0 kHz
Frame rate : 31.250 FPS (1536 SPF)
Bit depth : 16 bits
Compression mode : Lossy
Stream size : 122 MiB (1%)
Title : MOV | CINE+ KIDS HD
Language : Ukrainian
Service kind : Complete Main
Default : Yes
Forced : Yes

Audio #2
ID : 3
Format :
Format/Info : Digital Theater Systems
Codec ID : A_DTS
Duration : 1 h 28 min
Bit rate mode : Constant
Bit rate : 1 509 kb/s
Channel(s) : 6 channels
Channel positions : Front: L C R, Side: L R, LFE
Sampling rate : 48.0 kHz
Frame rate : 93.750 FPS (512 SPF)
Bit depth : 24 bits
Compression mode : Lossy
Stream size : 957 MiB (10%)
Language : Japanese
Default : No
Forced : No

Menu
00:00:00.000 : en:00:00:00.000
00:13:02.823 : en:00:13:02.823
00:28:16.653 : en:00:28:16.653
00:43:11.714 : en:00:43:11.714
00:59:12.840 : en:00:59:12.840
01:09:13.148 : en:01:09:13.148
01:24:27.062 : en:01:24:27.062
Скріншоти




Запис: Sando7
Зведення: sergiyko
Джерело: &
Особиста оцінка: 0 - не дивився
Чорний кіт Рудольф (Жив собі кіт, Rudolf the Black Cat) / Rudorufu to Ippaiattena (2016) 1080p Ukr/Jpn

Чорний кіт Рудольф (Жив собі кіт, Rudolf the Black Cat) / Rudorufu to Ippaiattena (2016) 1080p Ukr/Jpn


 Трекер:    Зареєстрований   

Завантажити / скачати мультфільм українською



відео для новачків



 Зареєстрований:   2018-09-29 22:54
 Розмір:   8.97 GB 
 Оцінка мультфільму:   9.7/10 (Голосів: 10)
   
SaWiF 
Новенький


З нами з: 13.01.09
Востаннє: 14.02.21
Повідомлень: 14

2019-12-20 23:35  
Безнадійно милий мульт що розповідає про добро, чудово підійде для маленьких діток. Переглядав з дівчиною - в цілому сподобалося, але не варто очікувати рівня відомих мультів.
Ваш часовий пояс: GMT + 2 Години

Нова тема   Відповісти