Прянощі та пристрасті / The Hundred-Foot Journey (2014) AVC Ukr/Eng | Sub Eng

Нові коментарі

Нова тема   Відповісти
Автор Повідомлення
staf777 
Відео Гуртом - підтримка та поширення
Відео Гуртом - підтримка та поширення


З нами з: 16.11.16
Востаннє: 24.04.19
Повідомлень: 2284

2018-09-29 19:17  
Прянощі та пристрасті / The Hundred-Foot Journey (2014) AVC Ukr/Eng | Sub Eng

Прянощі та пристрасті / The Hundred-Foot Journey (2014) AVC Ukr/Eng | Sub Eng
Альтернативний постер:



Жанр: комедія, драма
Країна: Індія, ОАЕ, США



Кінокомпанія: Amblin Entertainment, DreamWorks Studios, Harpo Films
Режисер: Лассе Галлстрем
Актори: Гелен Мірен, Ом Пурі, Маніш Даял, Шарлота Ле Бон, Аміт Шах, Фарзана Дуа Елахе, Діллон Мітра

Сюжет:
Родина індійських емігрантів, яких доля закинула в маленьке містечко в Провансі, вирішує відкрити кав'ярню зі східною кухнею... прямо навпроти відомого на весь округ ресторану "Плакуча верба", бастіону французьких кулінарних традицій, господиня якого, Мадам Малорі, більше за все на світі пишається тим, що її заклад удостоєно зірки в каталозі "Мішлен". Спочатку Мадам Малорі не приховує своєї огиди галасливими сусідами і їхніми екзотичними звичками, але поступово війна за клієнтів між двома ресторанами змінюється хитким перемир'ям, особливо, коли з'ясовується, що юний кухар-емігрант Гассан має досконалий смак, і рецепти французької кухні підкорюються йому так само легко, як таємниці індійських прянощів.


Тривалість: 02:02:29
Якість: AVC
Відео:
кодек:
розмір кадру: 1024x432
бітрейт: 2096 кб/с

Аудіо # 1:
мова: українська
переклад: професійний дубльований
кодек: 2.0
бітрейт: 192 кб/с

Аудіо # 2:
мова: англійська
переклад: оригінал
кодек: 5.1
бітрейт: 384 кб/с

Джерело озвучення:


Субтитри:
мова: англійська
тип: програмні (м'які)
формат: *.srt
Info
General
Unique ID : 329369741238169620890899395224660151937 (0xF7CA4E039BDD5DEFAADC208064B50E81)
Complete name : N:\The Hundred-Foot Journey (2014) AVC [UKR_ENG] [Hurtom].
Format :
Format version : Version 4 / Version 2
File size : 2.29 GiB
Duration : 2 h 2 min
Overall bit rate : 2 672 kb/s
Movie name : The Hundred-Foot Journey (2014) AVC [UKR_ENG] [Hurtom]
Encoded date : UTC 2018-09-29 15:57:08
Writing application : v24.0.0 ('Beyond The Pale') 64-bit
Writing library : libebml v1.3.6 + v1.4.9
Cover : Yes
Attachments : cover.jpg

Video
ID : 1
Format : AVC
Format/Info : Advanced Video Codec
Format profile : [email protected]
Format settings : CABAC / 9 Ref Frames
Format settings, CABAC : Yes
Format settings, ReFrames : 9 frames
Codec ID : V_MPEG4/ISO/AVC
Duration : 2 h 2 min
Bit rate : 2 096 kb/s
Width : 1 024 pixels
Height : 432 pixels
Display aspect ratio : 2.40:1
Frame rate mode : Constant
Frame rate : 23.976 FPS
Color space : YUV
Chroma subsampling : 4:2:0
Bit depth : 8 bits
Scan type : Progressive
Bits/(Pixel*Frame) : 0.198
Stream size : 1.79 GiB (78%)
Title : The.Hundred-Foot.Journey.2014..D..(AVC).by.StarbirS
Writing library : core 142 r2431 ac76440
Encoding settings : cabac=1 / ref=9 / deblock=1:-3:-3 / analyse=0x3:0x113 / me=umh / subme=11 / psy=1 / psy_rd=1.00:0.20 / mixed_ref=1 / me_range=48 / chroma_me=1 / trellis=2 / 8x8dct=1 / cqm=0 / deadzone=21,11 / fast_pskip=0 / chroma_qp_offset=-3 / threads=12 / lookahead_threads=4 / sliced_threads=0 / nr=0 / decimate=0 / interlaced=0 / bluray_compat=0 / constrained_intra=0 / bframes=8 / b_pyramid=2 / b_adapt=2 / b_bias=0 / direct=3 / weightb=1 / open_gop=0 / weightp=2 / keyint=240 / keyint_min=23 / scenecut=40 / intra_refresh=0 / rc=2pass / mbtree=0 / bitrate=2096 / ratetol=1.0 / qcomp=0.65 / qpmin=0 / qpmax=69 / qpstep=4 / cplxblur=20.0 / qblur=0.5 / ip_ratio=1.40 / pb_ratio=1.30 / aq=2:1.00
Language : English
Default : Yes
Forced : No

Audio #1
ID : 2
Format : AC-3
Format/Info : Audio Coding 3
Codec ID : A_AC3
Duration : 2 h 2 min
Bit rate mode : Constant
Bit rate : 192 kb/s
Channel(s) : 2 channels
Channel positions : Front: L R
Sampling rate : 48.0 kHz
Frame rate : 31.250 FPS (1536 SPF)
Bit depth : 16 bits
Compression mode : Lossy
Stream size : 168 MiB (7%)
Title : [UA-DUB-TET]
Language : Ukrainian
Service kind : Complete Main
Default : Yes
Forced : Yes

Audio #2
ID : 3
Format : AC-3
Format/Info : Audio Coding 3
Codec ID : A_AC3
Duration : 2 h 2 min
Bit rate mode : Constant
Bit rate : 384 kb/s
Channel(s) : 6 channels
Channel positions : Front: L C R, Side: L R, LFE
Sampling rate : 48.0 kHz
Frame rate : 31.250 FPS (1536 SPF)
Bit depth : 16 bits
Compression mode : Lossy
Stream size : 337 MiB (14%)
Language : English
Service kind : Complete Main
Default : No
Forced : No

Text
ID : 4
Format : UTF-8
Codec ID : S_TEXT/UTF8
Codec ID/Info : UTF-8 Plain Text
Duration : 1 h 54 min
Bit rate : 56 b/s
Count of elements : 1823
Stream size : 47.6 KiB (0%)
Language : English
Default : No
Forced : No

Menu
00:00:00.000 : en:00:00:00.000
00:07:36.790 : en:00:07:36.790
00:15:05.154 : en:00:15:05.154
00:20:56.464 : en:00:20:56.464
00:27:01.912 : en:00:27:01.912
00:33:27.464 : en:00:33:27.464
00:41:12.011 : en:00:41:12.011
00:48:12.264 : en:00:48:12.264
00:55:11.934 : en:00:55:11.934
01:02:18.526 : en:01:02:18.526
01:08:58.676 : en:01:08:58.676
01:19:08.953 : en:01:19:08.953
01:28:00.734 : en:01:28:00.734
01:35:53.164 : en:01:35:53.164
01:41:47.393 : en:01:41:47.393
01:47:40.162 : en:01:47:40.162
01:51:18.005 : en:01:51:18.005
01:54:39.247 : en:01:54:39.247
Скріншоти





Дякую пану krigg070 за запис з ТБ та пану Arsenfpu за синхронізацію.
Джерело: &
Особиста оцінка: 0 - не дивився
Прянощі та пристрасті / The Hundred-Foot Journey (2014) AVC Ukr/Eng | Sub Eng

Прянощі та пристрасті / The Hundred-Foot Journey (2014) AVC Ukr/Eng | Sub Eng


 Трекер:    Зареєстрований   

Завантажити / скачати фільм українською



відео для новачків



 Зареєстрований:   2018-09-29 19:17
 Розмір:   2.29 GB 
 Оцінка фільму:   8.9/10 (Голосів: 21)
   
Інші релізи
MutuLI 
Відео Гуртом - фільмокрай
Відео Гуртом - фільмокрай


З нами з: 08.03.09
Востаннє: 23.04.19
Повідомлень: 1491

2018-09-29 20:34  
класний фільм, колоритний, мені дуже сподобався.
VitNi 
Свій


З нами з: 05.05.12
Востаннє: 23.04.19
Повідомлень: 121

2018-09-29 22:40  
хто написав шо це драма? Happy

аби все життя було такою гарною драмою - я згоден...

MutuLI 
Відео Гуртом - фільмокрай
Відео Гуртом - фільмокрай


З нами з: 08.03.09
Востаннє: 23.04.19
Повідомлень: 1491

2018-09-30 14:08  
VitNi написано:
хто написав шо це драма? Happy

комедія, драма

Ваш часовий пояс: GMT + 2 Години

Нова тема   Відповісти