Меркурій в небезпеці / Mercury Rising (1998) 720p Ukr/Eng | Sub Eng

Нові коментарі

Нова тема   Відповісти
Автор Повідомлення
Anonymous 







2018-09-29 18:54  
Меркурій в небезпеці / Mercury Rising (1998) 720p Ukr/Eng | Sub Eng

Меркурій в небезпеці / Mercury Rising (1998) 720p Ukr/Eng | Sub Eng


Жанр: екшн, кримінальний, драма, трилер
Країна: США



Кінокомпанія: Universal Pictures, Imagine Entertainment
Режисер: Гарольд Беккер
Актори: Брюс Вілліс, Алек Болдвін, Міко Г'юз, Чі МакБрайд, Кім Дікенс, Роберт Стентон, Бодхі Елфмен, Кіррі Престон, Ліндсі Гінтер, Пітер Стормар, Кевін Конуей, Джон Керролл Лінч, Келлі Хазен, Джон Домен, Річард Ніхль, Чад Ліндберг, Хенк Харріс, Джеймс МакДональд, Камрін Менхейм, Джек Конл

Сюжет:
Колишній співробітник ФБР Арт Джеффріс захищає від безжалісних федеральних агентів Саймона, дев'ятирічного хлопчика, що зумів розкрити новий, «непіддатливий дешифруванню» урядовий код. Саймон може читати «Меркурій», новітній шифрувальний код, так само легко, як інші діти читають книги.

Ці здібності ставлять під загрозу сам сенс існування новітньої розробки вартістю мільярд доларів, особливо якщо вороги Сполучених Штатів дізнаються про незвичайного хлопчика і захоплять його. Голова Програми Нік Кудроу наказує усунути «загрозу безпеки країни», але він не враховує, що в справу втрутиться Джеффріс. Переслідувані кривавими вбивцями, Саймон і Джеффріс розуміють, що нікому довіряти не можна.

Час працює не на них, і детектив вирішує, що єдина надія на порятунок - використовувати дивні здібності Саймона і призвати вбивць до відповіді.


Тривалість: 01:51:27
Якість: 720p
Відео:
кодек:
розмір кадру: 1280х544
бітрейт: 6925 кб/с

Аудіо # 1:
мова: українська
переклад: багатоголосий закадровий ,
кодек: 2.0
бітрейт: 192 кб/с

Аудіо # 2:
мова: англійська
переклад: оригінал
кодек: 5.1
бітрейт: 1509 кб/с

Субтитри:
мова: англійська
тип: програмні (м'які)
формат: *.srt
Info
General
Unique ID : 248534019469450745317031500646613997744 (0xBAF9E9393AEE5FACB15FAAFFC41358B0)

Format :
Format version : Version 4 / Version 2
File size : 6.71 GiB
Duration : 1 h 51 min
Overall bit rate : 8 624 kb/s
Encoded date : UTC 2018-09-29 15:46:50
Writing application : v6.1.0 ('Old Devil') built on Mar 4 2013 09:10:42
Writing library : libebml v1.3.0 + v1.4.0

Video
ID : 1
Format : AVC
Format/Info : Advanced Video Codec
Format profile : [email protected]
Format settings : CABAC / 9 Ref Frames
Format settings, CABAC : Yes
Format settings, ReFrames : 9 frames
Codec ID : V_MPEG4/ISO/AVC
Duration : 1 h 51 min
Bit rate : 6 925 kb/s
Width : 1 280 pixels
Height : 544 pixels
Display aspect ratio : 2.35:1
Frame rate mode : Constant
Frame rate : 23.976 FPS
Color space : YUV
Chroma subsampling : 4:2:0
Bit depth : 8 bits
Scan type : Progressive
Bits/(Pixel*Frame) : 0.415
Stream size : 5.26 GiB (78%)
Writing library : core 102 r1666 d058f37
Encoding settings : cabac=1 / ref=9 / deblock=1:-3:-3 / analyse=0x3:0x133 / me=umh / subme=9 / psy=1 / psy_rd=0.95:0.05 / mixed_ref=1 / me_range=40 / chroma_me=1 / trellis=2 / 8x8dct=1 / cqm=0 / deadzone=21,11 / fast_pskip=0 / chroma_qp_offset=-5 / threads=12 / sliced_threads=0 / nr=0 / decimate=1 / interlaced=0 / constrained_intra=0 / bframes=7 / b_pyramid=2 / b_adapt=2 / b_bias=0 / direct=3 / weightb=1 / open_gop=0 / weightp=2 / keyint=250 / keyint_min=25 / scenecut=40 / intra_refresh=0 / rc_lookahead=40 / rc=2pass / mbtree=0 / bitrate=6925 / ratetol=1.0 / qcomp=0.60 / qpmin=10 / qpmax=51 / qpstep=4 / cplxblur=20.0 / qblur=0.5 / vbv_maxrate=50000 / vbv_bufsize=50000 / ip_ratio=1.40 / pb_ratio=1.30 / aq=1:0.80 / nal_hrd=none
Language : English
Default : No
Forced : No

Audio #1
ID : 2
Format : AC-3
Format/Info : Audio Coding 3
Codec ID : A_AC3
Duration : 1 h 51 min
Bit rate mode : Constant
Bit rate : 192 kb/s
Channel(s) : 2 channels
Channel positions : Front: L R
Sampling rate : 48.0 kHz
Frame rate : 31.250 FPS (1536 SPF)
Bit depth : 16 bits
Compression mode : Lossy
Stream size : 153 MiB (2%)
Title : UKR (ТРК "Україна")
Service kind : Complete Main
Default : Yes
Forced : No

Audio #2
ID : 3
Format :
Format/Info : Digital Theater Systems
Codec ID : A_DTS
Duration : 1 h 51 min
Bit rate mode : Constant
Bit rate : 1 509 kb/s
Channel(s) : 6 channels
Channel positions : Front: L C R, Side: L R, LFE
Sampling rate : 48.0 kHz
Frame rate : 93.750 FPS (512 SPF)
Bit depth : 24 bits
Compression mode : Lossy
Delay relative to video : 11 ms
Stream size : 1.17 GiB (17%)
Language : English
Default : No
Forced : No

Text
ID : 4
Format : UTF-8
Codec ID : S_TEXT/UTF8
Codec ID/Info : UTF-8 Plain Text
Language : English
Default : No
Forced : No
Скріншоти








За українську доріжку подяка п. ratbol та п. taraskill1
За постер подяка п. TPEM та igor911
Особиста подяка пану denixx за надану матеріальну допомогу на підтримку цього і майбутніх релізів.
Джерело:


Срібний реліз (на рейтинг впливає 50% завантаженого)
 Трекер:    Зареєстрований   

Завантажити / скачати фільм українською



відео для новачків



 Зареєстрований:   2018-09-29 18:54
 Розмір:   6.71 GB 
 Оцінка фільму:   9.5/10 (Голосів: 4)
   
Інші релізи
Ваш часовий пояс: GMT + 2 Години

Нова тема   Відповісти