Формула 1. Сезон 2018. Етап 16. Гран-Прі сусідньої країни. Кваліфікація (29.09.2018) HDTV 1080i

Нові коментарі

Нова тема   Відповісти
Автор Повідомлення
sergiyko.5 
VIP


З нами з: 25.02.16
Востаннє: 25.10.20
Повідомлень: 3615

2018-09-29 16:04  
Формула 1. Сезон 2018. Етап 16. Гран-Прі сусідньої країни. Кваліфікація (29.09.2018) HDTV 1080i


Формула 1. Сезон 2018. Етап 16. Гран-Прі сусідньої країни. Кваліфікація (29.09.2018) HDTV 1080i

Жанр: Перегони Формула 1
Країна: росія
Телеканал: Перший автомобільний
Коментатор: Максим Подзігун

Опис:
Кваліфікація шістнадцятого сезону Гран-Прі сусідньої країни 2018 року відбулась 29 вересня 2018 року о 15 годині за київським часом.


Тривалість: 01:11:31
Якість: HDTV

Відео:кодек: розмір кадру: 1920 х 1080 бітрейт: 5400 кб/с
Аудіо: мова: українська кодек: 2.0 бітрейт: 160 кб/с
Про файл:
General
Unique ID : 287581103317821733434182769017285263964 (0xD85A1B17CDD75224C9024AF683E4425C)
Complete name : D:\Torrents\SPORT\Formula 1\F1.2018.Qualifying\F1.2018.16.russian.Qualifying.1080i.HDTV.Ukr.
Format :
Format version : Version 4 / Version 2
File size : 2.80 GiB
Duration : 1 h 11 min
Overall bit rate : 5 615 kb/s
Encoded date : UTC 2018-09-29 14:01:16
Writing application : v27.0.0 ('Metropolis') 64-bit
Writing library : libebml v1.3.6 + v1.4.9

Video
ID : 1
Format : AVC
Format/Info : Advanced Video Codec
Format profile : [email protected]
Format settings : CABAC / 4 Ref Frames
Format settings, CABAC : Yes
Format settings, ReFrames : 4 frames
Codec ID : V_MPEG4/ISO/AVC
Duration : 1 h 11 min
Bit rate : 5 454 kb/s
Width : 1 920 pixels
Height : 1 080 pixels
Display aspect ratio : 16:9
Frame rate mode : Variable
Frame rate : 27.845 FPS
Original frame rate : 25.000 FPS
Standard : Component
Color space : YUV
Chroma subsampling : 4:2:0
Bit depth : 8 bits
Scan type : MBAFF
Scan type, store method : Interleaved fields
Scan order : Top Field First
Bits/(Pixel*Frame) : 0.094
Stream size : 2.72 GiB (97%)
Language : English
Default : Yes
Forced : No
Color range : Limited
Color primaries : BT.709
Transfer characteristics : BT.709
Matrix coefficients : BT.709

Audio
ID : 2
Format :
Format/Info : Advanced Audio Codec
Format profile : LC
Codec ID : A_AAC-2
Duration : 1 h 11 min
Bit rate : 158 kb/s
Channel(s) : 2 channels
Channel positions : Front: L R
Sampling rate : 48.0 kHz
Frame rate : 46.875 FPS (1024 SPF)
Compression mode : Lossy
Delay relative to video : 9 ms
Stream size : 80.8 MiB (3%)
Title : Максим Подзігун
Language : Ukrainian
Default : Yes
Forced : No
Скріншоти:


Автор запису: sergiyko


 Трекер:    Зареєстрований   

Завантажити / скачати торрент



відео для новачків



 Зареєстрований:   2018-09-29 16:04
 Розмір:   2.8 GB 
 Оцінка:   9.4/10 (Голосів: 15)
   
forsage29 
Новенький


З нами з: 24.07.12
Востаннє: 18.10.20
Повідомлень: 20

2018-09-30 09:43  
Назва гран-прі: THE BEST Wide grin
Дякую за відео)

SergUKR 
Новенький


З нами з: 19.03.11
Востаннє: 17.10.20
Повідомлень: 3

2018-09-30 12:01  
Гарна назва))) гонка по мокшанських болотах Wink (2)
Ваш часовий пояс: GMT + 2 Години

Нова тема   Відповісти