Санктум / Sanctum (2011) AVC Ukr/Eng | Sub Eng

Нові коментарі

Нова тема   Відповісти
Останній раз роздавалося ALFROMEDA (2019-11-22)
Автор Повідомлення
staf777 
Відео Гуртом - підтримка та поширення
Відео Гуртом - підтримка та поширення


З нами з: 16.11.16
Востаннє: 22.11.19
Повідомлень: 3034

2018-09-29 10:17  
Санктум / Sanctum (2011) AVC Ukr/Eng | Sub Eng

Санктум / Sanctum (2011) AVC Ukr/Eng | Sub Eng


Жанр: бойовик, пригодницький, трилер, драма
Країна: США, Австралія



Кінокомпанія: Relativity Media
Режисер: Алістер Грірсон
Актори: Річард Роксберг , Йоан Гріффіт , Еліс Паркінсон , Різ Вейкфілд , Деніел Віллі , Елісон Кретчлі

Сюжет:
Група дайверів робить дуже ризиковану експедицію у найбільшу систему печер на Землі - неймовірно красиву і майже недоступну. Несподіваний тропічний шторм змушує їх спуститися глибоко в печери. Єдиний порятунок для дослідників - знайти невідомий другий вихід до моря, долаючи шалену стихію бурхливих вод, підступні пастки підземель і смертельний жах ...


Тривалість: 01:48:49
Якість: AVC
Відео:
кодек:
розмір кадру: 1024x576
бітрейт: 3200 кб/с

Аудіо # 1:
мова: українська
переклад: багатоголосий закадровий | "Дія" на офіційне замовлення "Top Film Distribution" у 2011 р.
кодек: 5.1
бітрейт: 448 кб/с

Аудіо # 2:
мова: англійська
переклад: оригінал
кодек: 5.1
бітрейт: 448 кб/с

Субтитри:
мова: англійська
тип: програмні (м'які)
формат: *.srt
Скріншоти




MI
General
Unique ID : 27613236420367715826027466756621019175 (0x14C61DAADBC35722D505B258F00F2827)
Complete name : N:\Фільми AVC\Трилер\Sanctum (2011) AVC [UKR_ENG] [Hurtom].
Format :
Format version : Version 4 / Version 2
File size : 3.11 GiB
Duration : 1 h 48 min
Overall bit rate mode : Variable
Overall bit rate : 4 095 kb/s
Movie name : Sanctum (2011) AVC [UKR_ENG] [Hurtom]
Encoded date : UTC 2018-09-29 13:33:19
Writing application : v24.0.0 ('Beyond The Pale') 64-bit
Writing library : libebml v1.3.6 + v1.4.9
Cover : Yes
Attachments : cover.jpg

Video
ID : 1
Format : AVC
Format/Info : Advanced Video Codec
Format profile : [email protected]
Format settings : CABAC / 7 Ref Frames
Format settings, CABAC : Yes
Format settings, ReFrames : 7 frames
Codec ID : V_MPEG4/ISO/AVC
Duration : 1 h 48 min
Bit rate mode : Variable
Bit rate : 3 200 kb/s
Maximum bit rate : 14.0 Mb/s
Width : 1 024 pixels
Height : 576 pixels
Display aspect ratio : 16:9
Frame rate mode : Constant
Frame rate : 23.976 (24000/1001) FPS
Color space : YUV
Chroma subsampling : 4:2:0
Bit depth : 8 bits
Scan type : Progressive
Bits/(Pixel*Frame) : 0.226
Stream size : 2.43 GiB (78%)
Writing library : core 114 r1913 5fd3dce
Encoding settings : cabac=1 / ref=8 / deblock=1:-2:-2 / analyse=0x3:0x133 / me=umh / subme=10 / psy=1 / psy_rd=1.00:0.30 / mixed_ref=1 / me_range=48 / chroma_me=1 / trellis=2 / 8x8dct=1 / cqm=0 / deadzone=21,11 / fast_pskip=0 / chroma_qp_offset=-4 / threads=6 / sliced_threads=0 / slices=4 / nr=0 / decimate=0 / interlaced=0 / constrained_intra=0 / bframes=8 / b_pyramid=1 / b_adapt=2 / b_bias=0 / direct=3 / weightb=1 / open_gop=0 / weightp=0 / keyint=24 / keyint_min=2 / scenecut=40 / intra_refresh=0 / rc_lookahead=24 / rc=2pass / mbtree=1 / bitrate=3200 / ratetol=1.0 / qcomp=0.60 / qpmin=0 / qpmax=69 / qpstep=4 / cplxblur=20.0 / qblur=0.5 / vbv_maxrate=14000 / vbv_bufsize=14500 / nal_hrd=vbr / ip_ratio=1.30 / aq=1:1.00
Language : English
Default : Yes
Forced : No

Audio #1
ID : 2
Format : AC-3
Format/Info : Audio Coding 3
Codec ID : A_AC3
Duration : 1 h 48 min
Bit rate mode : Constant
Bit rate : 448 kb/s
Channel(s) : 6 channels
Channel positions : Front: L C R, Side: L R, LFE
Sampling rate : 48.0 kHz
Frame rate : 31.250 FPS (1536 SPF)
Bit depth : 16 bits
Compression mode : Lossy
Stream size : 349 MiB (11%)
Language : Ukrainian
Service kind : Complete Main
Default : Yes
Forced : Yes

Audio #2
ID : 3
Format : AC-3
Format/Info : Audio Coding 3
Codec ID : A_AC3
Duration : 1 h 48 min
Bit rate mode : Constant
Bit rate : 448 kb/s
Channel(s) : 6 channels
Channel positions : Front: L C R, Side: L R, LFE
Sampling rate : 48.0 kHz
Frame rate : 31.250 FPS (1536 SPF)
Bit depth : 16 bits
Compression mode : Lossy
Stream size : 349 MiB (11%)
Title : Original
Language : English
Service kind : Complete Main
Default : No
Forced : No

Text
ID : 4
Format : UTF-8
Codec ID : S_TEXT/UTF8
Codec ID/Info : UTF-8 Plain Text
Duration : 1 h 40 min
Bit rate : 32 b/s
Count of elements : 797
Stream size : 24.0 KiB (0%)
Language : English
Default : No
Forced : No
Джерело: &
Особиста оцінка: 0 - не дивився
Санктум / Sanctum (2011) AVC Ukr/Eng | Sub Eng

Санктум / Sanctum (2011) AVC Ukr/Eng | Sub Eng


 Трекер:    Зареєстрований   

Завантажити / скачати фільм українською



відео для новачків



 Зареєстрований:   2018-09-29 16:00
 Розмір:   3.11 GB 
 Оцінка фільму:   7.4/10 (Голосів: 16)
   
Інші релізи
   Санктум / Sanctum (2011) 1080p Ukr/Eng kvvdvd  1 / 0   13.16 GB   2016-10-09 08:33 
   Санктум / Sanctum (2011) 720p Ukr/Eng pohgejib  0 / 0   4.05 GB   2011-04-17 19:13 
   Санктум / Sanctum (2011) Ukr/Eng | Sub Eng karvai0  6 / 0   2.18 GB   2011-04-16 21:12 
   Санктум / Sanctum (2011) DVD9 Ukr/Rus dj-mika  1 / 0   5.08 GB   2011-02-24 02:53 
   Санктум / Sanctum (2011) Ukr/Eng antik_2008  0 / 0   2 GB   2011-02-24 00:15 
drop_plz 
VIP


З нами з: 07.02.14
Востаннє: 22.11.19
Повідомлень: 1902

2018-12-09 21:26  
дубльований чи все ж таки багатоголоска?
igor911 
Модератор відео


З нами з: 18.01.08
Востаннє: 23.11.19
Повідомлень: 13673

2018-12-10 01:37  
drop_plz написано:
дубльований чи все ж таки багатоголоска?

виправив

Ваш часовий пояс: GMT + 2 Години

Нова тема   Відповісти