Ідеальний чоловік / The Perfect Man (2005) 720p Ukr/Eng | Sub Eng

Нові коментарі

Нова тема   Відповісти
Автор Повідомлення
Anonymous 







2018-09-29 08:50  
Ідеальний чоловік / The Perfect Man (2005) 720p Ukr/Eng | Sub Eng

Ідеальний чоловік / The Perfect Man (2005) 720p Ukr/Eng | Sub Eng


Жанр: романтична комедія, мелодрама
Країна: США



Кінокомпанія: Universal Pictures
Режисер: Марк Росман
Актори: Хіларі Дафф, Хезер Локлір, Кріс Нот, Майк О`Меллі, Бен Фельдман, Ванеса Ленджіс, Керолайн Перлман, Кім Вітлі, Арія Воллес

Сюжет:
Джіан Гамільтон - молода мати-одиначка, яка виховує двох дочок і намагається бути для них ідеальною матір'ю і подругою. Ідилію псують її нескінченні спроби налагодити своє особисте життя - розлучившись з черговим бойфрендом, Джіан збирає речі і дочок і відправляється шукати щастя в іншому місті. Її старша дочка Холлі, вже порядком стомилися від подібного життя, вирішує розробити свій план, відповідно до якого вона повинна буде знайти своєї матері ідеального чоловіка, який нарешті зміг би покласти всім цим пошукам кінець.


Тривалість: 01:40:39
Якість: 720p
Відео:
кодек:
розмір кадру: 1280х696
бітрейт: 7 816 кб/с

Аудіо # 1:
мова: українська
переклад: багатоголосий закадровий
кодек: 2.0 (з 5.1)
бітрейт: 192 кб/с

Аудіо # 2:
мова: англійська
переклад: оригінал
кодек: 5.1
бітрейт: 1 509 кб/с

Субтитри:
мова: англійська (Full)
тип: програмні (м'які)
формат: *.srt

Субтитри:
мова: англійська (SDH)
тип: програмні (м'які)
формат: *.srt
Info
General
Unique ID : 238812953711933203071756778344645807801 (0xB3A9B3AD7FCAC04ABE696E7468EE4EB9)

Format :
Format version : Version 4 / Version 2
File size : 6.69 GiB
Duration : 1 h 40 min
Overall bit rate : 9 515 kb/s
Encoded date : UTC 2018-09-29 06:41:52
Writing application : v6.1.0 ('Old Devil') built on Mar 4 2013 09:10:42
Writing library : libebml v1.3.0 + v1.4.0

Video
ID : 1
Format : AVC
Format/Info : Advanced Video Codec
Format profile : [email protected]
Format settings : CABAC / 5 Ref Frames
Format settings, CABAC : Yes
Format settings, ReFrames : 5 frames
Codec ID : V_MPEG4/ISO/AVC
Duration : 1 h 40 min
Bit rate : 7 816 kb/s
Width : 1 280 pixels
Height : 696 pixels
Display aspect ratio : 1.85:1
Frame rate mode : Constant
Frame rate : 23.976 (24000/1001) FPS
Color space : YUV
Chroma subsampling : 4:2:0
Bit depth : 8 bits
Scan type : Progressive
Bits/(Pixel*Frame) : 0.366
Stream size : 5.36 GiB (80%)
Writing library : core 157 r2932 303c484
Encoding settings : cabac=1 / ref=5 / deblock=1:-3:-3 / analyse=0x3:0x113 / me=umh / subme=8 / psy=1 / psy_rd=1.10:0.00 / mixed_ref=1 / me_range=24 / chroma_me=1 / trellis=2 / 8x8dct=1 / cqm=0 / deadzone=21,11 / fast_pskip=1 / chroma_qp_offset=-2 / threads=22 / lookahead_threads=3 / sliced_threads=0 / nr=0 / decimate=1 / interlaced=0 / bluray_compat=0 / constrained_intra=0 / bframes=3 / b_pyramid=2 / b_adapt=2 / b_bias=0 / direct=3 / weightb=1 / open_gop=0 / weightp=2 / keyint=240 / keyint_min=24 / scenecut=40 / intra_refresh=0 / rc_lookahead=50 / rc=2pass / mbtree=1 / bitrate=7816 / ratetol=1.0 / qcomp=0.60 / qpmin=0 / qpmax=69 / qpstep=4 / cplxblur=20.0 / qblur=0.5 / ip_ratio=1.40 / aq=3:0.75
Default : Yes
Forced : No
Statistics Tags Issue : no_variable_data 1970-01-01 00:00:00 / v6.1.0 ('Old Devil') built on Mar 4 2013 09:10:42 2018-09-29 06:41:52
FromStats_BitRate : 7812202
FromStats_Duration : 01:40:39.450000000
FromStats_FrameCount : 144802
FromStats_StreamSize : 5897676078

Audio #1
ID : 2
Format : AC-3
Format/Info : Audio Coding 3
Codec ID : A_AC3
Duration : 1 h 40 min
Bit rate mode : Constant
Bit rate : 192 kb/s
Channel(s) : 2 channels
Channel positions : Front: L R
Sampling rate : 48.0 kHz
Frame rate : 31.250 FPS (1536 SPF)
Bit depth : 16 bits
Compression mode : Lossy
Stream size : 138 MiB (2%)
Title : UKR (ТРК "Україна")
Language : Ukrainian
Service kind : Complete Main
Default : Yes
Forced : Yes

Audio #2
ID : 3
Format :
Format/Info : Digital Theater Systems
Codec ID : A_DTS
Duration : 1 h 40 min
Bit rate mode : Constant
Bit rate : 1 509 kb/s
Channel(s) : 6 channels
Channel positions : Front: L C R, Side: L R, LFE
Sampling rate : 48.0 kHz
Frame rate : 93.750 FPS (512 SPF)
Bit depth : 24 bits
Compression mode : Lossy
Stream size : 1.06 GiB (16%)
Language : English
Default : No
Forced : No
Statistics Tags Issue : no_variable_data 1970-01-01 00:00:00 / v6.1.0 ('Old Devil') built on Mar 4 2013 09:10:42 2018-09-29 06:41:52
FromStats_BitRate : 1508999
FromStats_Duration : 01:40:40.022000000
FromStats_FrameCount : 566252
FromStats_StreamSize : 1139299024

Text #1
ID : 4
Format : UTF-8
Codec ID : S_TEXT/UTF8
Codec ID/Info : UTF-8 Plain Text
Language : English
Default : No
Forced : No
Statistics Tags Issue : no_variable_data 1970-01-01 00:00:00 / v6.1.0 ('Old Devil') built on Mar 4 2013 09:10:42 2018-09-29 06:41:52
FromStats_BitRate : 71
FromStats_Duration : 01:36:05.926000000
FromStats_FrameCount : 1513
FromStats_StreamSize : 51832

Text #2
ID : 5
Format : UTF-8
Codec ID : S_TEXT/UTF8
Codec ID/Info : UTF-8 Plain Text
Title : SDH
Language : English
Default : No
Forced : No
Statistics Tags Issue : no_variable_data 1970-01-01 00:00:00 / v6.1.0 ('Old Devil') built on Mar 4 2013 09:10:42 2018-09-29 06:41:52
FromStats_BitRate : 76
FromStats_Duration : 01:36:27.698000000
FromStats_FrameCount : 1650
FromStats_StreamSize : 55017

Menu
00:00:00.000 : en:00:00:00.000
00:10:00.600 : en:00:10:00.600
00:20:01.200 : en:00:20:01.200
00:30:01.800 : en:00:30:01.800
00:40:02.400 : en:00:40:02.400
00:50:03.000 : en:00:50:03.000
01:00:03.600 : en:01:00:03.600
01:10:04.200 : en:01:10:04.200
01:20:04.800 : en:01:20:04.800
01:30:05.400 : en:01:30:05.400
01:40:06.000 : en:01:40:06.000
Скріншоти








Подяка: пану karvai0 та RosXXX за українську доріжку, пану Gelios - за українізований постер.
Особиста подяка пану denixx за надану матеріальну допомогу на підтримку цього і майбутніх релізів.
Джерело:


 Трекер:    Зареєстрований   

Завантажити / скачати фільм українською



відео для новачків



 Зареєстрований:   2018-09-29 08:50
 Розмір:   6.69 GB 
 Оцінка фільму:   -/10 (Голосів: 0)
   
Інші релізи
   Ідеальний чоловік / The Perfect Man (2005) Ukr/Eng RosXXX  4 / 0   1.72 GB   2011-11-05 14:06 
Ваш часовий пояс: GMT + 2 Години

Нова тема   Відповісти