Всесвітня Війна Z [Розширена версія] / World War Z [Unrated Cut] (2013) 720p Ukr/Eng | Sub Ukr/Eng

Нові коментарі

Нова тема   Відповісти
Автор Повідомлення
staf777 
Попереджень: 1
Попереджень: 1 


З нами з: 16.11.16
Востаннє: 16.10.18
Повідомлень: 1632

2018-09-28 21:48  
Всесвітня Війна Z [Розширена версія] / World War Z [Unrated Cut] (2013) 720p Ukr/Eng | Sub Ukr/Eng

Всесвітня Війна Z [Розширена версія] / World War Z [Unrated Cut] (2013) 720p Ukr/Eng | Sub Ukr/Eng


Жанр: пригодницький, трилер, фантастика
Країна: США, Мальта



Кінокомпанія: Plan B Entertainment, Apparatus Productions, GK Films
Режисер: Марк Форстер (Marc Forster)
Актори: Бред Пітт (Brad Pitt), Мірей Енос (Mireille Enos), Джеймс Бедж Дейл (James Badge Dale), Метью Фокс (Matthew Fox), Даніелла Кертеш (Daniella Kertesz), Луді Бокен (Ludi Boeken), Фана Мокоена (Fana Mokoena)...

Сюжет:
Напад живих мерців — не жарт і не казка. Зомбі зненацька стали реальністю, яка загрожує загибеллю всьому людству. Гниючі, напіврозкладені, вони практично невразливі — зате найдрібніше поранення, нанесене ними живій людині, загрожує перетворити її на зомбі. Епічна битва розгортається на всіх континентах і охоплює безліч країн, від Китаю до США і від Куби до Росії. Земля — на межі катастрофи. І зовсім незрозуміло, як знищити супротивника, який уже мертвий.....


Тривалість: 02:03:04
Якість: 720p
Відео:
кодек:
розмір кадру: 1280x534
бітрейт: 4197 кб/с

Аудіо # 1:
мова: українська
переклад: професійний дубльований з вставками оригіналу
кодек: 5.1
бітрейт: 448 кб/с

Аудіо # 2:
мова: англійська
переклад: оригінал
кодек: 5.1
бітрейт: 640 кб/с

Джерело озвучення:


Субтитри:(форсовані на місця без перекладу) + (повні)
мова: українська
тип: програмні (м'які)
формат: *.srt

Субтитри: (Forced + Full + SDH + SDH-Colored)
мова: англійська
тип: програмні (м'які)
формат: *.srt
Info
General
Unique ID : 145559131380648542894199265740194357525 (0x6D81AB424E537EA18155951F1A28A115)
Complete name : S:\World War Z [Unrated] (2013) 720p [UKR_ENG] [Hurtom] .
Format :
Format version : Version 4 / Version 2
File size : 4.54 GiB
Duration : 2 h 3 min
Overall bit rate : 5 287 kb/s
Movie name : World War Z [Unrated] (2013) 720p [UKR_ENG] [Hurtom]
Encoded date : UTC 2018-09-28 17:07:01
Writing application : v24.0.0 ('Beyond The Pale') 64-bit
Writing library : libebml v1.3.6 + v1.4.9
Cover : Yes
Attachments : cover.png

Video
ID : 1
Format : AVC
Format/Info : Advanced Video Codec
Format profile : [email protected]
Format settings : CABAC / 9 Ref Frames
Format settings, CABAC : Yes
Format settings, ReFrames : 9 frames
Codec ID : V_MPEG4/ISO/AVC
Duration : 2 h 3 min
Bit rate : 4 197 kb/s
Width : 1 280 pixels
Height : 534 pixels
Display aspect ratio : 2.40:1
Frame rate mode : Constant
Frame rate : 23.976 FPS
Color space : YUV
Chroma subsampling : 4:2:0
Bit depth : 8 bits
Scan type : Progressive
Bits/(Pixel*Frame) : 0.256
Stream size : 3.61 GiB (79%)
Title : potroks
Writing library : core 130 r2273 b3065e6
Encoding settings : cabac=1 / ref=9 / deblock=1:-3:-3 / analyse=0x3:0x133 / me=umh / subme=11 / psy=1 / psy_rd=1.13:0.05 / mixed_ref=1 / me_range=32 / chroma_me=1 / trellis=2 / 8x8dct=1 / cqm=0 / deadzone=21,11 / fast_pskip=0 / chroma_qp_offset=-3 / threads=8 / lookahead_threads=2 / sliced_threads=0 / nr=0 / decimate=0 / interlaced=0 / bluray_compat=0 / constrained_intra=0 / bframes=10 / b_pyramid=2 / b_adapt=2 / b_bias=0 / direct=3 / weightb=1 / open_gop=0 / weightp=2 / keyint=250 / keyint_min=23 / scenecut=40 / intra_refresh=0 / rc_lookahead=60 / rc=2pass / mbtree=0 / bitrate=4197 / ratetol=1.0 / qcomp=0.70 / qpmin=0 / qpmax=69 / qpstep=4 / cplxblur=20.0 / qblur=0.5 / vbv_maxrate=50000 / vbv_bufsize=62500 / nal_hrd=none / ip_ratio=1.35 / pb_ratio=1.25 / aq=1:0.70
Language : English
Default : Yes
Forced : No

Audio #1
ID : 2
Format : AC-3
Format/Info : Audio Coding 3
Codec ID : A_AC3
Duration : 2 h 3 min
Bit rate mode : Constant
Bit rate : 448 kb/s
Channel(s) : 6 channels
Channel positions : Front: L C R, Side: L R, LFE
Sampling rate : 48.0 kHz
Frame rate : 31.250 FPS (1536 SPF)
Bit depth : 16 bits
Compression mode : Lossy
Stream size : 394 MiB (8%)
Title : [UA-DUB]
Language : Ukrainian
Service kind : Complete Main
Default : Yes
Forced : Yes

Audio #2
ID : 3
Format : AC-3
Format/Info : Audio Coding 3
Codec ID : A_AC3
Duration : 2 h 3 min
Bit rate mode : Constant
Bit rate : 640 kb/s
Channel(s) : 6 channels
Channel positions : Front: L C R, Side: L R, LFE
Sampling rate : 48.0 kHz
Frame rate : 31.250 FPS (1536 SPF)
Bit depth : 16 bits
Compression mode : Lossy
Stream size : 563 MiB (12%)
Title : Original | DD 5.1 @ 640 kbps
Language : English
Service kind : Complete Main
Default : No
Forced : No

Text #1
ID : 4
Format : UTF-8
Codec ID : S_TEXT/UTF8
Codec ID/Info : UTF-8 Plain Text
Duration : 1 h 46 min
Bit rate : 1 b/s
Count of elements : 36
Stream size : 1.35 KiB (0%)
Title : [Forced]
Language : Ukrainian
Default : Yes
Forced : Yes

Text #2
ID : 5
Format : UTF-8
Codec ID : S_TEXT/UTF8
Codec ID/Info : UTF-8 Plain Text
Duration : 1 h 55 min
Bit rate : 72 b/s
Count of elements : 1267
Stream size : 61.3 KiB (0%)
Title : [Full]
Language : Ukrainian
Default : No
Forced : No

Text #3
ID : 6
Format : UTF-8
Codec ID : S_TEXT/UTF8
Codec ID/Info : UTF-8 Plain Text
Duration : 52 min 37 s
Bit rate : 0 b/s
Count of elements : 9
Stream size : 260 Bytes (0%)
Title : Forced
Language : English
Default : No
Forced : No

Text #4
ID : 7
Format : UTF-8
Codec ID : S_TEXT/UTF8
Codec ID/Info : UTF-8 Plain Text
Duration : 1 h 54 min
Bit rate : 42 b/s
Count of elements : 1257
Stream size : 35.9 KiB (0%)
Title : Full
Language : English
Default : No
Forced : No

Text #5
ID : 8
Format : UTF-8
Codec ID : S_TEXT/UTF8
Codec ID/Info : UTF-8 Plain Text
Duration : 1 h 54 min
Bit rate : 53 b/s
Count of elements : 1521
Stream size : 44.5 KiB (0%)
Title : SDH
Language : English
Default : No
Forced : No

Text #6
ID : 9
Format : UTF-8
Codec ID : S_TEXT/UTF8
Codec ID/Info : UTF-8 Plain Text
Duration : 1 h 54 min
Bit rate : 72 b/s
Count of elements : 1521
Stream size : 60.7 KiB (0%)
Title : SDH-Colored
Language : English
Default : No
Forced : No

Menu
00:00:00.000 : :Chapter 01
00:05:05.179 : :Chapter 02
00:13:53.999 : :Chapter 03
00:22:43.195 : :Chapter 04
00:29:46.034 : :Chapter 05
00:35:21.494 : :Chapter 06
00:42:23.457 : :Chapter 07
00:52:37.946 : :Chapter 08
00:58:53.821 : :Chapter 09
01:07:18.868 : :Chapter 10
01:15:11.757 : :Chapter 11
01:24:02.037 : :Chapter 12
01:29:08.801 : :Chapter 13
01:34:50.518 : :Chapter 14
01:43:45.469 : :Chapter 15
01:52:17.981 : :Chapter 16
01:55:51.653 : :Chapter 17
Скріншоти



За українську аудіодоріжку та субтитри дякую пану Demrandir
Джерело: &
Особиста оцінка: 8 - мені сподобалося
Всесвітня Війна Z [Розширена версія] / World War Z [Unrated Cut] (2013) 720p Ukr/Eng | Sub Ukr/Eng

Всесвітня Війна Z [Розширена версія] / World War Z [Unrated Cut] (2013) 720p Ukr/Eng | Sub Ukr/Eng


 Трекер:    Зареєстрований   

Завантажити / скачати фільм українською



відео для новачків



 Зареєстрований:   2018-09-28 21:48
 Розмір:   4.54 GB 
 Оцінка фільму:   8.3/10 (Голосів: 8)
   
Інші релізи
   Всесвітня Війна Z [Розширена версія] / World War Z [Unrated Cut] (2013) AVC Ukr/Eng | Sub Ukr/Eng Yarik M  2 / 0   2.27 GB   2015-11-21 14:34 
   Всесвітня Війна Z [Розширена версія] / World War Z [Unrated Cut] (2013) 1080p Ukr/Eng | Sub Ukr/Eng Demrandir  6 / 0   11.57 GB   2015-11-19 22:18 
   Всесвітня Війна Z [Розширена версія] / World War Z [Unrated Cut] (2013) [5.1 ] Український дубляж + вставки оригіналу | Sub Ukr Demrandir  0 / 0   394 MB   2015-11-19 20:02 
   Всесвітня Війна Z / World War Z (2013) 1080p H.265 Ukr/Eng | Sub Ukr/Eng Tenax555  1 / 0   7.77 GB   2014-09-20 00:17 
   Всесвітня Війна Z / World War Z (2013) 1080p | 3D-Video seroga13  1 / 0   8.78 GB   2013-10-15 22:33 
   Всесвітня Війна Z / World War Z [Theatrical Cut] (2013) Remux 1080p Ukr/Eng | Sub Ukr/Eng 11FrYkT  0 / 1   28.18 GB   2013-10-09 07:53 
   Всесвітня Війна Z / World War Z [Theatrical Cut] (2013) AVC Ukr/Eng | Sub Ukr/Eng 11FrYkT  0 / 0   2.75 GB   2013-10-08 17:41 
   Всесвітня Війна Z / World War Z (2013) 720p Ukr/Eng | Sub Ukr/Eng sergiyko  1 / 0   5.18 GB   2013-10-08 14:12 
   Всесвітня Війна Z / World War Z (2013) sergiyko  10 / 0   1.51 GB   2013-10-08 13:38 
   Всесвітня Війна Z [Театральна версія] / World War Z [Theatrical Cut] (2013) 1080p Ukr/Eng | Sub Ukr/Eng igor911  3 / 0   9.7 GB   2013-10-08 04:56 
   Всесвітня війна Z [Театральна версія] / World War Z [Theatrical Cut] (2013) Ukr/Eng | Sub Ukr/Eng Jatx_11  1 / 0   2.18 GB   2013-10-08 00:34 
Ваш часовий пояс: GMT + 2 Години

Нова тема   Відповісти