Валентинка / Blue Valentine (2010) 1080p Ukr/Eng | Sub Eng

Нові коментарі

Нова тема   Відповісти
Автор Повідомлення
Anonymous 







2018-09-28 14:58  
Валентинка / Blue Valentine (2010) 1080p Ukr/Eng | Sub Eng

Валентинка / Blue Valentine (2010) 1080p Ukr/Eng | Sub Eng


Жанр: драма, романтичний
Країна: США



Кінокомпанія: Incentive Filmed Entertainment, Silverwood Films, Hunting Lane Films
Режисер: Дерек Сіенфренс
Актори: Раян Ґослінґ, Мішель Вільямс, Джон Доман, Майк Фоґель, Маршал Джонсон, Джен Джонс, Меріенн Планкет, Джеймс Бенатті, Барбара Трой, Кері Вестбрук, Бен Шенкман, Ейлін Розен

Сюжет:
Історія непростих взаємовідносин молодої пари, яка з усіх сил намагається врятувати свій шлюб.


Тривалість: 01:52:05
Якість: 1080p
Відео:
кодек:
розмір кадру: 1 792х1 080
бітрейт: 8 996 кб/с

Аудіо # 1:
мова: українська
переклад: двоголосий закадровий
кодек: 2.0
бітрейт: 192 кб/с

Аудіо # 2:
мова: англійська
переклад: оригінал
кодек: 5.1
бітрейт: 768 кб/с

Субтитри:
мова: англійська
тип: програмні (м'які)
формат: *.srt
Info
General
Unique ID : 198153577848765742937074217079441552379 (0x9512FDACB6841A65944DE74C2E2573FB)
Format :
Format version : Version 4 / Version 2
File size : 7.78 GiB
Duration : 1 h 52 min
Overall bit rate : 9 936 kb/s
Encoded date : UTC 2018-09-28 12:51:01
Writing application : v6.1.0 ('Old Devil') built on Mar 4 2013 09:10:42
Writing library : libebml v1.3.0 + v1.4.0

Video
ID : 1
Format : AVC
Format/Info : Advanced Video Codec
Format profile : [email protected]
Format settings : CABAC / 4 Ref Frames
Format settings, CABAC : Yes
Format settings, ReFrames : 4 frames
Codec ID : V_MPEG4/ISO/AVC
Duration : 1 h 52 min
Bit rate : 8 996 kb/s
Width : 1 792 pixels
Height : 1 080 pixels
Display aspect ratio : 5:3
Frame rate mode : Constant
Frame rate : 23.976 (23976/1000) FPS
Color space : YUV
Chroma subsampling : 4:2:0
Bit depth : 8 bits
Scan type : Progressive
Bits/(Pixel*Frame) : 0.194
Stream size : 6.87 GiB (88%)
Writing library : core 115 r1947 b5a8ad7
Encoding settings : cabac=1 / ref=4 / deblock=1:0:0 / analyse=0x3:0x133 / me=umh / subme=7 / psy=1 / psy_rd=1.00:0.00 / mixed_ref=1 / me_range=16 / chroma_me=1 / trellis=1 / 8x8dct=1 / cqm=0 / deadzone=21,11 / fast_pskip=0 / chroma_qp_offset=-2 / threads=12 / sliced_threads=0 / nr=0 / decimate=1 / interlaced=0 / bluray_compat=0 / constrained_intra=0 / bframes=3 / b_pyramid=2 / b_adapt=1 / b_bias=0 / direct=1 / weightb=1 / open_gop=0 / weightp=2 / keyint=250 / keyint_min=23 / scenecut=40 / intra_refresh=0 / rc_lookahead=40 / rc=2pass / mbtree=1 / bitrate=8996 / ratetol=1.0 / qcomp=0.60 / qpmin=0 / qpmax=69 / qpstep=4 / cplxblur=20.0 / qblur=0.5 / ip_ratio=1.40 / aq=1:1.00
Language : English
Default : Yes
Forced : No

Audio #1
ID : 2
Format : AC-3
Format/Info : Audio Coding 3
Codec ID : A_AC3
Duration : 1 h 52 min
Bit rate mode : Constant
Bit rate : 192 kb/s
Channel(s) : 2 channels
Channel positions : Front: L R
Sampling rate : 48.0 kHz
Frame rate : 31.250 FPS (1536 SPF)
Bit depth : 16 bits
Compression mode : Lossy
Stream size : 154 MiB (2%)
Title : UKR (1+1)
Language : Ukrainian
Service kind : Complete Main
Default : Yes
Forced : Yes

Audio #2
ID : 3
Format :
Format/Info : Digital Theater Systems
Codec ID : A_DTS
Duration : 1 h 52 min
Bit rate mode : Constant
Bit rate : 768 kb/s
Channel(s) : 6 channels
Channel positions : Front: L C R, Side: L R, LFE
Sampling rate : 48.0 kHz
Frame rate : 93.750 FPS (512 SPF)
Bit depth : 24 bits
Compression mode : Lossy
Stream size : 616 MiB (8%)
Title : ENG
Language : English
Default : No
Forced : No

Text
ID : 4
Format : UTF-8
Codec ID : S_TEXT/UTF8
Codec ID/Info : UTF-8 Plain Text
Title : ENG
Default : Yes
Forced : No
Скріншоти







За українську доріжку подяка п.: Neytreenor, krigg070, xslim, ninenine
За український постер подяка п. drobik81
Особиста подяка пану denixx за надану матеріальну допомогу на підтримку цього і майбутніх релізів.
Джерело:


 Трекер:    Зареєстрований   

Завантажити / скачати фільм українською



відео для новачків



 Зареєстрований:   2018-09-28 14:58
 Розмір:   7.78 GB 
 Оцінка фільму:   9.8/10 (Голосів: 5)
   
Інші релізи
   Валентинка / Blue Valentine (2010) Ukr/Eng ninenine  2 / 0   1.97 GB   2016-08-14 14:34 
Ваш часовий пояс: GMT + 2 Години

Нова тема   Відповісти