Формула 1. Сезон 2018. Етап 16. Гран-Прі сусідньої країни. 1-3 практика (28.09.2018) HDTV 1080i

Нові коментарі

Нова тема   Відповісти
Останній раз роздавалося sergiyko.5 (2019-03-03)
Автор Повідомлення
sergiyko.5 
Забанено
Забанено


З нами з: 25.02.16
Востаннє: 29.10.20
Повідомлень: 3651

2018-09-28 13:07  
Формула 1. Сезон 2018. Етап 16. Гран-Прі сусідньої країни. 1-3 практика (28.09.2018) HDTV 1080i


Формула 1. Сезон 2018. Етап 16. Гран-Прі сусідньої країни. 1-3 практика (28.09.2018) HDTV 1080i

Жанр: Перегони Формула 1
Країна: росія
Телеканал: Перший автомобільний
Коментатор: Павло Воробйов

Опис:
Перша, друга та третя практики шістнадцятого сезону Гран-Прі сусідньої країни 2018 року відбулись 28 вересня о 12 та 15 годині та 29 вересня о 12 годині за київським часом.


Тривалість: 01:39:06 + 01:38:31 + 01:09:15
Якість: HDTV

Відео:кодек: розмір кадру: 1920 х 1080 бітрейт: 5400 кб/с
Аудіо: мова: українська кодек: 2.0 бітрейт: 160 кб/с
Про файл:
General
Unique ID : 190644793959399016545543893517194760983 (0x8F6CDA0BD0D56DC50DABF54A3CEC1317)
Complete name : D:\Torrents\SPORT\Formula 1\F1.2018.16.russian.Practice.1080i.HDTV\F1.2018.16.russian.Practice.1.1080i.HDTV.
Format :
Format version : Version 4 / Version 2
File size : 3.86 GiB
Duration : 1 h 39 min
Overall bit rate : 5 582 kb/s
Encoded date : UTC 2018-09-28 12:00:29
Writing application : v26.0.0 ('In The Game') 64-bit
Writing library : libebml v1.3.6 + v1.4.9

Video
ID : 1
Format : AVC
Format/Info : Advanced Video Codec
Format profile : [email protected]
Format settings : CABAC / 4 Ref Frames
Format settings, CABAC : Yes
Format settings, ReFrames : 4 frames
Codec ID : V_MPEG4/ISO/AVC
Duration : 1 h 39 min
Bit rate : 5 421 kb/s
Width : 1 920 pixels
Height : 1 080 pixels
Display aspect ratio : 16:9
Frame rate mode : Variable
Frame rate : 26.403 FPS
Original frame rate : 25.000 FPS
Standard : Component
Color space : YUV
Chroma subsampling : 4:2:0
Bit depth : 8 bits
Scan type : MBAFF
Scan type, store method : Interleaved fields
Scan order : Top Field First
Bits/(Pixel*Frame) : 0.099
Stream size : 3.75 GiB (97%)
Title : F1 2018 16 russian Practice 1
Language : English
Default : Yes
Forced : No
Color range : Limited
Color primaries : BT.709
Transfer characteristics : BT.709
Matrix coefficients : BT.709

Audio
ID : 2
Format :
Format/Info : Advanced Audio Codec
Format profile : LC
Codec ID : A_AAC-2
Duration : 1 h 39 min
Bit rate : 158 kb/s
Channel(s) : 2 channels
Channel positions : Front: L R
Sampling rate : 48.0 kHz
Frame rate : 46.875 FPS (1024 SPF)
Compression mode : Lossy
Delay relative to video : 9 ms
Stream size : 112 MiB (3%)
Title : Павло Воробйов
Language : Ukrainian
Default : Yes
Forced : No
Скріншоти:


Автор запису: sergiyko


Бронзовий реліз (на рейтинг впливає 75% завантаженого)
 Трекер:    Зареєстрований   

Завантажити / скачати торрент



відео для новачків



 Зареєстрований:   2018-09-29 16:02
 Розмір:   10.31 GB 
 Оцінка:   7.8/10 (Голосів: 8)
   
sergiyko.5 
Забанено
Забанено


З нами з: 25.02.16
Востаннє: 29.10.20
Повідомлень: 3651

2018-09-28 18:03  
Додав другу практику.
sergiyko.5 
Забанено
Забанено


З нами з: 25.02.16
Востаннє: 29.10.20
Повідомлень: 3651

2018-09-29 16:03  
Додав третю практику.
Ваш часовий пояс: GMT + 2 Години

Нова тема   Відповісти