Мачо на колесах / Tout le monde debout (2018) Remux 1080p Ukr/Fre

Нові коментарі

Нова тема   Відповісти
Автор Повідомлення
staf777 
Попереджень: 1
Попереджень: 1 


З нами з: 16.11.16
Востаннє: 21.10.18
Повідомлень: 1642

2018-09-28 09:06  
Мачо на колесах / Tout le monde debout (2018) Remux 1080p Ukr/Fre

Мачо на колесах / Tout le monde debout (2018) Remux 1080p Ukr/Fre


Жанр: комедія, мелодрама
Країна: Франція



Кінокомпанія: Gaumont, La Boétie Films, Pour Toi Public Productions, TF1 Films Production, Nexus Factory, Umedia
Режисер: Франк Дюбоск
Актори: Ельза Зільберштейн, Франк Дюбоск, Олександра Лемі, Жерар Дармон, Крістоф Канар

Сюжет:
Джоселін - успішний бізнесмен, проте дуже егоїстичний і помилковий. Він намагається спокусити молоду гарну жінку, вдаючи, що він інвалід. Щоправда все змінюється. коли він дізнається, що її сестра - справді інвалід...


Тривалість: 01:47:34
Якість: Remux 1080p
Відео:
кодек:
розмір кадру: 1920x1080
бітрейт: 31,8 Mб/с

Аудіо # 1:
мова: українська
переклад: професійний дубльований
кодек: 2.0
бітрейт: 192 кб/с

Аудіо # 2:
мова: французька
переклад: оригінал
кодек: -HD MA 5.1
бітрейт: 3840 кб/с
Info
General
Unique ID : 116113371473708960700433111256954925470 (0x575A9F3543A3D3EF43FFB083F475719E)
Complete name : G:\Майбутні релізи\KINOZAL\Tout le monde debout (2018) Remux 1080p [UA][FRE][Hurtom].
Format :
Format version : Version 4 / Version 2
File size : 26.9 GiB
Duration : 1 h 47 min
Overall bit rate mode : Variable
Overall bit rate : 35.8 Mb/s
Movie name : Tout le monde debout (2018) Remux 1080p [UA][FRE][Hurtom]
Encoded date : UTC 2018-09-28 07:06:02
Writing application : v24.0.0 ('Beyond The Pale') 64-bit
Writing library : libebml v1.3.6 + v1.4.9
Cover : Yes
Attachments : cover

Video
ID : 1
Format : AVC
Format/Info : Advanced Video Codec
Format profile : [email protected]
Format settings : CABAC / 4 Ref Frames
Format settings, CABAC : Yes
Format settings, ReFrames : 4 frames
Format settings, GOP : M=3, N=24
Codec ID : V_MPEG4/ISO/AVC
Duration : 1 h 47 min
Bit rate mode : Variable
Bit rate : 31.8 Mb/s
Maximum bit rate : 35.0 Mb/s
Width : 1 920 pixels
Height : 1 080 pixels
Display aspect ratio : 16:9
Frame rate mode : Constant
Frame rate : 24.000 FPS
Standard : NTSC
Color space : YUV
Chroma subsampling : 4:2:0
Bit depth : 8 bits
Scan type : Progressive
Bits/(Pixel*Frame) : 0.639
Stream size : 23.9 GiB (89%)
Language : French
Default : Yes
Forced : No
Color range : Limited
Color primaries : BT.709
Transfer characteristics : BT.709
Matrix coefficients : BT.709

Audio #1
ID : 2
Format : AC-3
Format/Info : Audio Coding 3
Codec ID : A_AC3
Duration : 1 h 47 min
Bit rate mode : Constant
Bit rate : 192 kb/s
Channel(s) : 2 channels
Channel positions : Front: L R
Sampling rate : 48.0 kHz
Frame rate : 31.250 FPS (1536 SPF)
Bit depth : 16 bits
Compression mode : Lossy
Stream size : 148 MiB (1%)
Title : 2.0 @ 192 kbps
Language : Ukrainian
Service kind : Complete Main
Default : Yes
Forced : Yes

Audio #2
ID : 3
Format :
Format/Info : Digital Theater Systems
Format profile : MA / Core
Codec ID : A_DTS
Duration : 1 h 47 min
Bit rate mode : Variable / Constant
Bit rate : 3 840 kb/s / 1 509 kb/s
Channel(s) : 6 channels
Channel positions : Front: L C R, Side: L R, LFE
Sampling rate : 48.0 kHz
Frame rate : 93.750 FPS (512 SPF)
Bit depth : 24 bits
Compression mode : Lossless / Lossy
Stream size : 2.86 GiB (11%)
Title : Original
Language : French
Default : No
Forced : No

Menu
00:00:00.000 : en:Chapter 1
00:09:54.625 : en:Chapter 2
00:17:21.083 : en:Chapter 3
00:27:31.208 : en:Chapter 4
00:35:17.333 : en:Chapter 5
00:44:15.791 : en:Chapter 6
00:55:18.208 : en:Chapter 7
01:04:36.458 : en:Chapter 8
01:12:49.791 : en:Chapter 9
01:21:02.208 : en:Chapter 10
01:29:16.125 : en:Chapter 11
01:36:07.750 : en:Chapter 12
Скріншоти




Підтримати купівлю інших фільмів можна тут.

Подяка пану AngryBirdsUA за доріжку та пану Electroz за синхронізацію.
Джерело: &
Особиста оцінка: 0 - не дивився


Золотий реліз (завантажене не впливає на рейтинг)
 Трекер:    Зареєстрований   

Завантажити / скачати фільм українською



відео для новачків



 Зареєстрований:   2018-09-28 10:24
 Розмір:   26.89 GB 
 Оцінка фільму:   8.4/10 (Голосів: 14)
   
Інші релізи
parom77 
Свій


З нами з: 02.01.11
Востаннє: 20.10.18
Повідомлень: 66

2018-09-29 16:43  
як фільм? хтось дивився?
Lyolic 
VIP


З нами з: 04.08.09
Востаннє: 21.10.18
Повідомлень: 305

2018-09-30 15:50  
parom77
Хоч я і не дуже люблю такий жанр, але фільм сподобався Happy Приємний фільм.

Custo 12 
Свій


З нами з: 08.11.16
Востаннє: 10.10.18
Повідомлень: 66

2018-10-01 17:12  
Дуже добрий і легкий фільм. Раджу подивитись.
Ваш часовий пояс: GMT + 2 Години

Нова тема   Відповісти