Мачо на колесах (Rolling to You) / Tout le monde debout (2018) 1080p Ukr/Fre

Нові коментарі

Нова тема   Відповісти
Автор Повідомлення
staf777 
Попереджень: 1
Попереджень: 1 


З нами з: 16.11.16
Востаннє: 19.10.18
Повідомлень: 1637

2018-09-28 08:58  
Мачо на колесах / Rolling to You / Tout le monde debout (2018) 1080p Ukr/Fre

Мачо на колесах (Rolling to You) / Tout le monde debout (2018) 1080p Ukr/Fre
Альтернативний постер:



Жанр: комедія, мелодрама
Країна: Франція



Кінокомпанія: Gaumont,La Boétie Films,Pour Toi Public Productions
Режисер: Франк Дюбоск
Актори: Ельза Зільберштейн, Франк Дюбоск, Олександра Лемі, Жерар Дармон, Крістоф Канар

Сюжет:
Джоселін - успішний бізнесмен, проте дуже егоїстичний і помилковий. Він намагається спокусити молоду гарну жінку, вдаючи, що він інвалід. Щоправда все змінюється. коли він дізнається, що її сестра - справді інвалід...


Тривалість: 01:47:34
Якість: 1080p
Відео:
кодек:
розмір кадру: 1920x808
бітрейт: 9065 кб/с

Аудіо # 1:
мова: українська
переклад: професійний дубльований
кодек: 2.0 (стерео)
бітрейт: 192 кб/с

Аудіо # 2:
мова: французька
переклад: оригінал
кодек: 5.1
бітрейт: 1509 кб/с
Info
General
Unique ID : 36785154625704827053031479972682801274 (0x1BAC902607145BB9E9185147CBE0207A)
Complete name : S:\ Tout le monde debout (2018) 1080p [Ukr] [Fre] [Hurtom].
Format :
Format version : Version 4 / Version 2
File size : 8.09 GiB
Duration : 1 h 47 min
Overall bit rate : 10.8 Mb/s
Movie name : Tout le monde debout (2018) 1080p [Ukr] [Fre] [Hurtom]
Encoded date : UTC 2018-09-28 06:15:19
Writing application : v24.0.0 ('Beyond The Pale') 64-bit
Writing library : libebml v1.3.6 + v1.4.9
Cover : Yes
Attachments : cover

Video
ID : 1
Format : AVC
Format/Info : Advanced Video Codec
Format profile : [email protected]
Format settings : CABAC / 5 Ref Frames
Format settings, CABAC : Yes
Format settings, ReFrames : 5 frames
Codec ID : V_MPEG4/ISO/AVC
Duration : 1 h 47 min
Bit rate : 9 065 kb/s
Width : 1 920 pixels
Height : 808 pixels
Display aspect ratio : 2.40:1
Frame rate mode : Constant
Frame rate : 24.000 FPS
Color space : YUV
Chroma subsampling : 4:2:0
Bit depth : 8 bits
Scan type : Progressive
Bits/(Pixel*Frame) : 0.243
Stream size : 6.81 GiB (84%)
Writing library : core 155 r2901 7d0ff22
Encoding settings : cabac=1 / ref=5 / deblock=1:0:0 / analyse=0x3:0x113 / me=umh / subme=8 / psy=1 / psy_rd=1.00:0.00 / mixed_ref=1 / me_range=16 / chroma_me=1 / trellis=1 / 8x8dct=1 / cqm=0 / deadzone=21,11 / fast_pskip=1 / chroma_qp_offset=-2 / threads=18 / lookahead_threads=3 / sliced_threads=0 / nr=0 / decimate=1 / interlaced=0 / bluray_compat=0 / constrained_intra=0 / bframes=3 / b_pyramid=2 / b_adapt=2 / b_bias=0 / direct=3 / weightb=1 / open_gop=0 / weightp=2 / keyint=240 / keyint_min=24 / scenecut=40 / intra_refresh=0 / rc_lookahead=50 / rc=2pass / mbtree=1 / bitrate=9065 / ratetol=1.0 / qcomp=0.60 / qpmin=0 / qpmax=69 / qpstep=4 / cplxblur=20.0 / qblur=0.5 / ip_ratio=1.40 / aq=1:1.00
Language : English
Default : Yes
Forced : No

Audio #1
ID : 2
Format : AC-3
Format/Info : Audio Coding 3
Codec ID : A_AC3
Duration : 1 h 47 min
Bit rate mode : Constant
Bit rate : 192 kb/s
Channel(s) : 2 channels
Channel positions : Front: L R
Sampling rate : 48.0 kHz
Frame rate : 31.250 FPS (1536 SPF)
Bit depth : 16 bits
Compression mode : Lossy
Stream size : 148 MiB (2%)
Title : 2.0 @ 192 kbps
Language : Ukrainian
Service kind : Complete Main
Default : Yes
Forced : Yes

Audio #2
ID : 3
Format :
Format/Info : Digital Theater Systems
Codec ID : A_DTS
Duration : 1 h 47 min
Bit rate mode : Constant
Bit rate : 1 509 kb/s
Channel(s) : 6 channels
Channel positions : Front: L C R, Side: L R, LFE
Sampling rate : 48.0 kHz
Frame rate : 93.750 FPS (512 SPF)
Bit depth : 24 bits
Compression mode : Lossy
Stream size : 1.13 GiB (14%)
Title : French 1509kbps
Language : French
Default : No
Forced : No

Menu
00:00:00.000 : en:00:00:00.000
00:09:54.625 : en:00:09:54.625
00:17:21.083 : en:00:17:21.083
00:27:31.208 : en:00:27:31.208
00:35:17.333 : en:00:35:17.333
00:44:15.792 : en:00:44:15.792
00:55:18.208 : en:00:55:18.208
01:04:36.458 : en:01:04:36.458
01:12:49.792 : en:01:12:49.792
01:21:02.208 : en:01:21:02.208
01:29:16.125 : en:01:29:16.125
01:36:07.750 : en:01:36:07.750
Скріншоти



Підтримати купівлю інших фільмів можна тут.

Подяка пану AngryBirdsUA за доріжку та пану Electroz за синхронізацію.
Джерело: &
Особиста оцінка: 0 - не дивився
Мачо на колесах (Rolling to You) / Tout le monde debout (2018) 1080p Ukr/Fre

Мачо на колесах (Rolling to You) / Tout le monde debout (2018) 1080p Ukr/Fre


 Трекер:    Зареєстрований   

Завантажити / скачати фільм українською



відео для новачків



 Зареєстрований:   2018-09-28 10:02
 Розмір:   8.09 GB 
 Оцінка фільму:   7.7/10 (Голосів: 11)
   
Інші релізи
0mage0 
VIP


З нами з: 06.10.15
Востаннє: 19.10.18
Повідомлень: 368

2018-10-01 08:44  
Ідея фільму не оригінальна, але загалом вийшло нормально. Дивитися можна.
Ваш часовий пояс: GMT + 2 Години

Нова тема   Відповісти