Рятувальники (Рятівники) / The Rescuers (1977) 720p 2xUkr/Eng | Sub Eng

Нові коментарі

Нова тема   Відповісти
Автор Повідомлення
staf777 
Відео Гуртом - підтримка та поширення
Відео Гуртом - підтримка та поширення


З нами з: 16.11.16
Востаннє: 08.03.21
Повідомлень: 5127

2018-09-27 22:48  
Рятувальники (Рятівники) / The Rescuers (1977) 720p 2xUkr/Eng | Sub Eng

Рятувальники (Рятівники) / The Rescuers (1977) 720p 2xUkr/Eng | Sub Eng


Жанр: анімація, пригодницький, комедія
Країна: США



Кінокомпанія: Walt Disney Productions
Режисер: Джон Лоунсбері, Вольфганг Райтерман, Арт Стівенс
Актори: Боб Ньюхарт, Єва Габор, Джеральдін Пейдж, Джо Флінн, Жанетт Нолан, Пет Баттрем, Джим Джордан, Джон Макінтайр, Мішель Стейсі, Бернард Фокс

Сюжет:
У мультфільмі студії Волта Діснея команда рятувальників у складі двох хоробрих мишей вирушає на пошуки зниклої сироти Пенні. Все починається, коли пляшку із листом Пенні з проханням про допомогу викидає на берег, і вона потрапляє в руки хитрому Бернарду і його чарівній помічниці Міс Б'янці.
Прочитавши лист рятувальники не роздумуючи відправилися на пошуки Пенні, яку схопила Мадам Медуза. Але спочатку Бернарду і Б'янці потрібно уникнути гострих як бритва зубів ручних крокодилів Медузи і проявити досить винахідливості, щоб нарешті досягти мети.


Тривалість: 01:17:13
Якість: 720p
Відео:
кодек:
розмір кадру: 1196 x 720
бітрейт: 7100 кб/с

Аудіо # 1:
мова: українська
переклад: професійний дубльований | студія LeDoyen
кодек: 2.0 (стерео)
бітрейт: 192 кб/с

Аудіо # 2:
мова: українська
переклад: любительський одноголосий закадровий | Slava Rudik
кодек: 5.1
бітрейт: 448 кб/с

Аудіо # 3:
мова: англійська
переклад: оригінал
кодек: 5.1
бітрейт: 640 кб/с

Субтитри:
мова: українська (форсовані, на написи), англійська (повні+SDH)
тип: програмні (м'які)
формат: *.srt
Info
General
Unique ID : 276770874501769635376266020477893743258 (0xD03821A9928AF48CAA8F99F95296129A)
Complete name : S:\The Rescuers (1977) 720p [2xUKR_ENG] [Hurtom].
Format :
Format version : Version 4 / Version 2
File size : 4.52 GiB
Duration : 1 h 17 min
Overall bit rate : 8 386 kb/s
Movie name : The Rescuers (1977) 720p [2xUKR_ENG] [Hurtom]
Encoded date : UTC 2018-09-27 20:10:13
Writing application : v24.0.0 ('Beyond The Pale') 64-bit
Writing library : libebml v1.3.6 + v1.4.9
Cover : Yes
Attachments : cover.jpg

Video
ID : 1
Format : AVC
Format/Info : Advanced Video Codec
Format profile : [email protected]
Format settings : CABAC / 9 Ref Frames
Format settings, CABAC : Yes
Format settings, ReFrames : 9 frames
Codec ID : V_MPEG4/ISO/AVC
Duration : 1 h 17 min
Bit rate : 7 100 kb/s
Width : 1 196 pixels
Height : 720 pixels
Display aspect ratio : 5:3
Frame rate mode : Constant
Frame rate : 23.976 (24000/1001) FPS
Color space : YUV
Chroma subsampling : 4:2:0
Bit depth : 8 bits
Scan type : Progressive
Bits/(Pixel*Frame) : 0.344
Stream size : 3.83 GiB (85%)
Title : Encode by EbP
Writing library : core 125 r2208 d9d2288
Encoding settings : cabac=1 / ref=9 / deblock=1:-3:-3 / analyse=0x3:0x113 / me=tesa / subme=11 / psy=1 / psy_rd=0.70:0.00 / mixed_ref=1 / me_range=16 / chroma_me=1 / trellis=2 / 8x8dct=1 / cqm=0 / deadzone=21,11 / fast_pskip=0 / chroma_qp_offset=-2 / threads=12 / lookahead_threads=2 / sliced_threads=0 / nr=0 / decimate=0 / interlaced=0 / bluray_compat=0 / constrained_intra=0 / bframes=8 / b_pyramid=2 / b_adapt=2 / b_bias=0 / direct=3 / weightb=1 / open_gop=0 / weightp=2 / keyint=250 / keyint_min=23 / scenecut=40 / intra_refresh=0 / rc=2pass / mbtree=0 / bitrate=7100 / ratetol=1.0 / qcomp=0.70 / qpmin=0 / qpmax=69 / qpstep=4 / cplxblur=20.0 / qblur=0.5 / ip_ratio=1.40 / pb_ratio=1.30 / aq=1:0.95
Language : English
Default : Yes
Forced : No

Audio #1
ID : 2
Format : AC-3
Format/Info : Audio Coding 3
Codec ID : A_AC3
Duration : 1 h 17 min
Bit rate mode : Constant
Bit rate : 192 kb/s
Channel(s) : 2 channels
Channel positions : Front: L R
Sampling rate : 48.0 kHz
Frame rate : 31.250 FPS (1536 SPF)
Bit depth : 16 bits
Compression mode : Lossy
Stream size : 106 MiB (2%)
Title : 2.0 @ 192 kbps - DUB
Language : Ukrainian
Service kind : Complete Main
Default : Yes
Forced : Yes

Audio #2
ID : 3
Format : AC-3
Format/Info : Audio Coding 3
Codec ID : A_AC3
Duration : 1 h 17 min
Bit rate mode : Constant
Bit rate : 448 kb/s
Channel(s) : 6 channels
Channel positions : Front: L C R, Side: L R, LFE
Sampling rate : 48.0 kHz
Frame rate : 31.250 FPS (1536 SPF)
Bit depth : 16 bits
Compression mode : Lossy
Stream size : 247 MiB (5%)
Title : 5.1 @ 448 kbps - AVO, Slava Rudik
Language : Ukrainian
Service kind : Complete Main
Default : No
Forced : No

Audio #3
ID : 4
Format : AC-3
Format/Info : Audio Coding 3
Codec ID : A_AC3
Duration : 1 h 17 min
Bit rate mode : Constant
Bit rate : 640 kb/s
Channel(s) : 6 channels
Channel positions : Front: L C R, Side: L R, LFE
Sampling rate : 48.0 kHz
Frame rate : 31.250 FPS (1536 SPF)
Bit depth : 16 bits
Compression mode : Lossy
Stream size : 354 MiB (8%)
Title : 5.1 @ 640 kbps
Language : English
Service kind : Complete Main
Default : No
Forced : No

Text #1
ID : 5
Format : UTF-8
Codec ID : S_TEXT/UTF8
Codec ID/Info : UTF-8 Plain Text
Duration : 1 h 9 min
Bit rate : 0 b/s
Count of elements : 10
Stream size : 346 Bytes (0%)
Title : Forced
Language : Ukrainian
Default : Yes
Forced : Yes

Text #2
ID : 6
Format : UTF-8
Codec ID : S_TEXT/UTF8
Codec ID/Info : UTF-8 Plain Text
Duration : 1 h 16 min
Bit rate : 43 b/s
Count of elements : 815
Stream size : 24.2 KiB (0%)
Language : English
Default : No
Forced : No

Text #3
ID : 7
Format : UTF-8
Codec ID : S_TEXT/UTF8
Codec ID/Info : UTF-8 Plain Text
Duration : 1 h 16 min
Bit rate : 48 b/s
Count of elements : 970
Stream size : 27.1 KiB (0%)
Title : SDH
Language : English
Default : No
Forced : No

Menu
00:00:00.000 : en:Opening Credits / "The Journey"
00:04:17.674 : en:"Rescue Aid Society"
00:11:26.602 : en:Duty Calls
00:14:06.011 : en:At The Orphanage
00:19:50.439 : en:At Madame Medusa's Pawnshop
00:23:57.352 : en:Albatross Air Service, Flight #13
00:29:38.151 : en:"Tomorrow Is Another Day"
00:32:37.497 : en:Devil's Bayou
00:38:04.323 : en:Penny Runs Away
00:42:13.322 : en:Mr. Snoops And Madame Medusa's Hideout
00:52:37.946 : en:"Someone's Waiting for You"
00:55:21.985 : en:Escape Plans
01:00:19.282 : en:The Devil's Eye
01:09:11.939 : en:"We Did It!"
01:15:26.980 : en:Volunteers / The End






Джерело: &
Особиста оцінка: 8 - мені сподобалося
Рятувальники (Рятівники) / The Rescuers (1977) 720p 2xUkr/Eng | Sub Eng

Рятувальники (Рятівники) / The Rescuers (1977) 720p 2xUkr/Eng | Sub Eng


Золотий реліз (завантажене не впливає на рейтинг)
 Трекер:    Зареєстрований   

Завантажити / скачати мультфільм українською



відео для новачків



 Зареєстрований:   2018-09-27 22:48
 Розмір:   4.52 GB 
 Оцінка мультфільму:   8.8/10 (Голосів: 8)
   
Ваш часовий пояс: GMT + 2 Години

Нова тема   Відповісти