Тау / Tau (2018) 1080p Eng | Sub Ukr/Eng

Нові коментарі

Нова тема   Відповісти
Автор Повідомлення
Anonymous 







2018-09-27 21:44  
Тау / Tau (2018) 1080p Eng | Sub Ukr/Eng

Інші постери:




Жанр: фантастика, драма, трилер
Країна: США



Кінокомпанія: Addictive Pictures, Kaos Theory Entertainment, Phantom 4 Films, Rhea Films, Waypoint Entertainment, Netflix
Режисер: Федеріко Д'Алессандро / Federico D'Alessandro
Актори: Майка Монро / Maika Monroe, Ед Скрейн / Ed Skrein, Ґері Олдмен / Gary Oldman

Сюжет:
Дівчина, що заробляла на життя дрібними крадіжками опиняється у полоні вченого у його футуристичному розумному будинку-в'язниці-лабораторії, яким керує програма зі штучним інтелектом Тау. Всі в'язні підібрані так, що їх ніхто не шукатиме. Вони є піддослідними, яким вживили імпланти для вивчення мозкової діяльності і створення на основі отриманої інформації алгоритмів для штучного інтелекту. Після виконання програми досліджень імплант вилучають, а піддослідний гине. Єдина надія втекти звідти - переконати Тау допомогти.

Офіційний оригінальний трейлер:



Рейтинг MPAA: R - особам до 17 років обов'язкова присутність батьків або дорослого опікуна
Вікова категорія: 16+


Тривалість: 01:37:40
Якість: 1080p
Відео:
кодек:
розмір кадру: 1920х1080
бітрейт: 3480 кб/с

Аудіо:
мова: англійська
переклад: оригінал
кодек: 5.1
бітрейт: 384 кб/с

Субтитри # 1:
мова: українська
тип: програмні (м'які)
формат: *.srt
переклад: любительський, JoRi, GT - [спільнота SubAutumn]
редагування: igor911
примітка: крім контейнера ці субтитри також додано окремим файлом

Субтитри # 2:
мова: англійська (SDH)
тип: програмні (м'які)
формат: *.srt
Info
Код:
Complete name               : Tau (2018) [Eng sub.Ukr,Eng] 1080p [Hurtom].
Format                      :
Format version              : Version 4
File size                   : 2.62 GiB
Duration                    : 1 h 37 min
Overall bit rate mode       : Variable
Overall bit rate            : 3 846 kb/s
Movie name                  : Тау / Tau (2018) [Eng sub.Ukr,Eng] 1080p [Hurtom]
Released date               : 2018
Encoded date                : UTC 2018-09-27 20:30:44
Writing application         : v27.0.0 ('Metropolis') 64-bit
Writing library             : libebml v1.3.6 + v1.4.9
Cover                       : Yes
Comment                     : https://www.imdb.com/title/tt4357394/
Attachments                 : cover.jpg
DIRECTOR                    : Федеріко Д'Алессандро / Federico D'Alessandro
GENRE                       : фантастика, драма, трилер
SYNOPSIS                    : Дівчина опиняється у полоні вченого у його футуристичному розумному будинку-в'язниці-лабораторії, яким керує програма зі штучним інтелектом Тау. Єдина надія втекти звідти - переконати програму штучного інтелекту допомогти...
Url                         : https://toloka.to/t95353

Video
ID                          : 1
Format                      : AVC
Format/Info                 : Advanced Video Codec
Format profile              : [email protected]
Format settings             : CABAC / 3 Ref Frames
Format settings, CABAC      : Yes
Format settings, ReFrames   : 3 frames
Codec ID                    : V_MPEG4/ISO/AVC
Duration                    : 1 h 37 min
Bit rate mode               : Variable
Bit rate                    : 3 480 kb/s
Maximum bit rate            : 5 220 kb/s
Width                       : 1 920 pixels
Height                      : 1 080 pixels
Display aspect ratio        : 16:9
Frame rate mode             : Constant
Frame rate                  : 23.976 (24000/1001) FPS
Color space                 : YUV
Chroma subsampling          : 4:2:0
Bit depth                   : 8 bits
Scan type                   : Progressive
Bits/(Pixel*Frame)          : 0.070
Stream size                 : 2.36 GiB (90%)
Title                       : Тау / Tau (2018) 1080p [NTb]
Writing library             : core 148 r2715 7e75228
Encoding settings           : cabac=1 / ref=3 / deblock=1:0:0 / analyse=0x1:0x111 / me=umh / subme=10 / psy=1 / psy_rd=1.00:0.00 / mixed_ref=1 / me_range=24 / chroma_me=1 / trellis=2 / 8x8dct=0 / cqm=0 / deadzone=21,11 / fast_pskip=1 / chroma_qp_offset=-2 / threads=8 / lookahead_threads=1 / sliced_threads=0 / nr=0 / decimate=1 / interlaced=0 / bluray_compat=0 / stitchable=1 / constrained_intra=0 / bframes=2 / b_pyramid=0 / b_adapt=2 / b_bias=0 / direct=3 / weightb=1 / open_gop=0 / weightp=2 / keyint=48 / keyint_min=25 / scenecut=0 / intra_refresh=0 / rc_lookahead=48 / rc=2pass / mbtree=1 / bitrate=3480 / ratetol=1.0 / qcomp=0.50 / qpmin=6 / qpmax=51 / qpstep=4 / cplxblur=20.0 / qblur=0.5 / vbv_maxrate=5220 / vbv_bufsize=6960 / nal_hrd=vbr / filler=0 / ip_ratio=1.40 / aq=1:1.00
Language                    : English
Default                     : Yes
Forced                      : No

Audio
ID                          : 2
Format                      : AC-3
Format/Info                 : Audio Coding 3
Commercial name             : Dolby Digital
Codec ID                    : A_AC3
Duration                    : 1 h 37 min
Bit rate mode               : Constant
Bit rate                    : 384 kb/s
Channel(s)                  : 6 channels
Channel layout              : L R C LFE Ls Rs
Sampling rate               : 48.0 kHz
Frame rate                  : 31.250 FPS (1536 SPF)
Bit depth                   : 16 bits
Compression mode            : Lossy
Stream size                 : 268 MiB (10%)
Title                       : Original, 5.1 384 Kbps
Language                    : English
Service kind                : Complete Main
Default                     : Yes
Forced                      : No

Text #1
ID                          : 3
Format                      : UTF-8
Codec ID                    : S_TEXT/UTF8
Codec ID/Info               : UTF-8 Plain Text
Duration                    : 1 h 30 min
Bit rate                    : 58 b/s
Count of elements           : 935
Stream size                 : 38.9 KiB (0%)
Title                       : Ukr full [JoRi, GT - SubAutumn], / edited by igor911 [Hurtom]
Language                    : Ukrainian
Default                     : Yes
Forced                      : Yes

Text #2
ID                          : 4
Format                      : UTF-8
Codec ID                    : S_TEXT/UTF8
Codec ID/Info               : UTF-8 Plain Text
Duration                    : 1 h 29 min
Bit rate                    : 41 b/s
Count of elements           : 963
Stream size                 : 27.2 KiB (0%)
Title                       : Eng SDH
Language                    : English
Default                     : No
Forced                      : No


Джерело: &


Золотий реліз (завантажене не впливає на рейтинг)
 Трекер:    Зареєстрований   

Завантажити / скачати фільм українською



відео для новачків



 Зареєстрований:   2018-09-27 23:07
 Розмір:   2.62 GB 
 Оцінка фільму:   9.6/10 (Голосів: 19)
   
vash1 
VIP


З нами з: 16.03.16
Востаннє: 27.11.20
Повідомлень: 276

2018-11-30 22:55  
Цитата:
примітка: крім контейнера ці субтитри також додано окремим файлом


yes!

tpolit 
Попереджень: 1
Попереджень: 1 


З нами з: 10.01.15
Востаннє: 26.11.20
Повідомлень: 637

2018-12-07 17:53  
Дякую. Люблю фільми про штучний інтелект. Цей трохи нагадує Ex Machina, хоча і не дотягує до нього.
White_123 
Поважний учасник


З нами з: 15.02.13
Востаннє: 25.11.20
Повідомлень: 233

2018-12-22 20:39  
Дуже і дуже слабо, ледь витримав 20 хвилин перегляду, після чого вимкнув цю фігню.
За ці 20 надивився "геніальних" сюжетних поворотів аж страх...
Не раджу нікому.

vasyl_ux 
Новенький


З нами з: 14.04.13
Востаннє: 30.07.20
Повідомлень: 4

2020-01-19 04:34  
Реально хороший фільм, ми з дружиною переглянули його і залишились задоволені і під хорошими враженнями. Наш син казав що не дуже, але я однозначно рекомендую.
Дякуємо за фільм !

Ваш часовий пояс: GMT + 2 Години

Нова тема   Відповісти