Касл-Рок (Сезон 1) / Castle Rock (Season 1) (2018) 720p Eng | sub Ukr

Нові коментарі

Нова тема   Відповісти
Автор Повідомлення
pskrm 
Свій


З нами з: 03.03.17
Востаннє: 15.07.20
Повідомлень: 114

2018-09-27 21:21  
Касл-Рок (Сезон 1) / Castle Rock (Season 1) (2018) 720p Eng | sub Ukr

Касл-Рок (Сезон 1) / Castle Rock (Season 1) (2018) 720p Eng | sub Ukr


Жанр: драма, фентезі, жахи
Країна: США



Кінокомпанія: Hulu
Режисер: Майкл Аппендаль
Актори: Андре Холланд, Білл Скарсгорд, Мелані Лінскі

Сюжет:
Серіал розповідає містичні та детективні історії циклу романів Стівена Кінґа, що відбуваються у вигаданому містечку Касл-Рок, штат Мен.


Тривалість: 00:50:00 x 1 серія (всього серій: 10 з 10)
Перелік серій:

01. Severance / Роз'єднання
02. Habeas Corpus / Habeas Corpus
03. Local Color / Місцевий колорит
04. The Box / Клітка
05. Harvest / Врожай
06. Filter / Фільтр
07. The Queen / Королева
08. Past Perfect / Минулий доконаний час
09 Henry Deaver / Генрі Дівер
10. Romans / Послання до римлян
Якість:
Відео:
кодек:
розмір кадру: 1280 х 640
бітрейт: 2851 кб/с

Аудіо:
мова: англійська
переклад: оригінал
кодек: 2.0
бітрейт: 160 кб/с

Субтитри:
мова: українська
тип: програмні (м'які)
формат: *.srt

Субтитри :власний переклад
Info

General
Complete name : G:\Files\TBA\CastleRock\CastleRock.Season.1\CastleRock.s01.e01.mp4
Format : MPEG-4
Format profile : Base Media / Version 2
Codec ID : mp42 (isom/iso2/avc1/mp41)
File size : 1.15 GiB
Duration : 54 min 32 s
Overall bit rate mode : Variable
Overall bit rate : 3 018 kb/s
Encoded date : UTC 2018-09-03 20:11:43
Tagged date : UTC 2018-09-03 20:11:43
Writing application : HandBrake 1.1.0 2018040700

Video
ID : 1
Format : AVC
Format/Info : Advanced Video Codec
Format profile : [email protected]
Format settings : CABAC / 5 Ref Frames
Format settings, CABAC : Yes
Format settings, RefFrames : 5 frames
Codec ID : avc1
Codec ID/Info : Advanced Video Coding
Duration : 54 min 32 s
Bit rate : 2 851 kb/s
Width : 1 280 pixels
Height : 640 pixels
Display aspect ratio : 2.000
Frame rate mode : Variable
Frame rate : 23.976 (24000/1001) FPS
Minimum frame rate : 23.974 FPS
Maximum frame rate : 23.981 FPS
Color space : YUV
Chroma subsampling : 4:2:0
Bit depth : 8 bits
Scan type : Progressive
Bits/(Pixel*Frame) : 0.145
Stream size : 1.09 GiB (94%)
Writing library : core 155 r2893 b00bcaf
Encoding settings : cabac=1 / ref=5 / deblock=1:0:0 / analyse=0x1:0x111 / me=hex / subme=8 / psy=1 / psy_rd=1.00:0.00 / mixed_ref=1 / me_range=16 / chroma_me=1 / trellis=2 / 8x8dct=0 / cqm=0 / deadzone=21,11 / fast_pskip=1 / chroma_qp_offset=-2 / threads=6 / lookahead_threads=1 / sliced_threads=0 / nr=0 / decimate=1 / interlaced=0 / bluray_compat=0 / constrained_intra=0 / bframes=3 / b_pyramid=2 / b_adapt=1 / b_bias=0 / direct=3 / weightb=1 / open_gop=0 / weightp=2 / keyint=240 / keyint_min=24 / scenecut=40 / intra_refresh=0 / rc_lookahead=50 / rc=crf / mbtree=1 / crf=15.0 / qcomp=0.60 / qpmin=0 / qpmax=69 / qpstep=4 / vbv_maxrate=20000 / vbv_bufsize=25000 / crf_max=0.0 / nal_hrd=none / filler=0 / ip_ratio=1.40 / aq=1:1.00
Encoded date : UTC 2018-09-03 20:11:43
Tagged date : UTC 2018-09-03 20:11:43
Color range : Limited
Color primaries : BT.709
Transfer characteristics : BT.709
Matrix coefficients : BT.709
Menus : 4
Codec configuration box : avcC

Audio
ID : 2
Format : LC
Format/Info : Advanced Audio Codec Low Complexity
Codec ID : mp4a-40-2
Duration : 54 min 32 s
Bit rate mode : Variable
Bit rate : 160 kb/s
Channel(s) : 2 channels
Channel layout : L R
Sampling rate : 48.0 kHz
Frame rate : 46.875 FPS (1024 SPF)
Compression mode : Lossy
Stream size : 62.5 MiB (5%)
Title : Stereo / Stereo
Default : Yes
Alternate group : 1
Encoded date : UTC 2018-09-03 20:11:43
Tagged date : UTC 2018-09-03 20:11:43
Menus : 4

Text
ID : 3
Format : Timed Text
Muxing mode : sbtl
Codec ID : tx3g
Duration : 52 min 30 s
Bit rate mode : Variable
Bit rate : 60 b/s
Stream size : 22.9 KiB (0%)
Language : Ukrainian
Default : Yes
Forced : No
Alternate group : 3
Encoded date : UTC 2018-09-03 20:11:43
Tagged date : UTC 2018-09-03 20:11:43
Menus : 4

Menu
ID : 4
Codec ID : text
Duration : 54 min 32 s
Language : English
Encoded date : UTC 2018-09-03 20:11:43
Tagged date : UTC 2018-09-03 20:11:43
Bit rate mode : CBR
Menu For : 1,2,3
00:00:00.000 : Chapter 1
00:14:57.522 : Chapter 2
00:29:13.794 : Chapter 3
00:43:48.709 : Chapter 4
Скріншоти


Джерело:
Особиста оцінка: 9 - давно не бачив настільки якісне кіно


Золотий реліз (завантажене не впливає на рейтинг)
 Трекер:    Зареєстрований   

Завантажити / скачати серіал українською



відео для новачків



 Зареєстрований:   2018-10-31 22:03
 Розмір:   9.67 GB 
 Оцінка серіалу:   9.4/10 (Голосів: 35)
   
an-isa 
Частий відвідувач


З нами з: 18.02.13
Востаннє: 13.11.20
Повідомлень: 43

2018-09-29 19:29  
А субтитрів немає
_hellisa 
Свій


З нами з: 26.02.17
Востаннє: 30.11.20
Повідомлень: 126

2018-09-30 18:11  
an-isa
субтитри м'які, їх треба увімкнути у плеєрі окремо

pskrm 
Свій


З нами з: 03.03.17
Востаннє: 15.07.20
Повідомлень: 114

2018-10-03 21:06  
Реліз оновлено!

Додано 6 серію!

krigg070 
Відео Гуртом - фільмокрай
Відео Гуртом - фільмокрай


З нами з: 29.10.14
Востаннє: 04.12.20
Повідомлень: 1819

2018-10-24 22:06  
pskrm
Реліз плануєте оновлювати?

_hellisa 
Свій


З нами з: 26.02.17
Востаннє: 30.11.20
Повідомлень: 126

2018-10-24 22:07  
krigg070
Так, днями залл'ємо решту серій.

pskrm 
Свій


З нами з: 03.03.17
Востаннє: 15.07.20
Повідомлень: 114

2018-10-25 21:05  
Реліз оновлено!

Додано 7-8 серії!

tpolit 
Попереджень: 1
Попереджень: 1 


З нами з: 10.01.15
Востаннє: 04.12.20
Повідомлень: 642

2018-10-28 08:06  
Перша серія зацікавила, хоча ідею з обожеславом не підтримую.
andiua 
Свій


З нами з: 07.04.10
Востаннє: 02.12.20
Повідомлень: 54

2018-10-30 13:28  
9, 10 серії будуть?
_hellisa 
Свій


З нами з: 26.02.17
Востаннє: 30.11.20
Повідомлень: 126

2018-10-30 13:35  
andiua
Так, завтра-післязавтра будуть.

andiua 
Свій


З нами з: 07.04.10
Востаннє: 02.12.20
Повідомлень: 54

2018-10-30 17:24  
_hellisa
дякую за вашу роботу!
побільше б серіалів із українськими сабами!!!
люблю оригінальною мовою дивитись, але рівень моєї англійської ще не дозволяє все зрозуміти

_hellisa 
Свій


З нами з: 26.02.17
Востаннє: 30.11.20
Повідомлень: 126

2018-10-30 18:47  
andiua
Дякуємо вам, що дивитеся!

pskrm 
Свій


З нами з: 03.03.17
Востаннє: 15.07.20
Повідомлень: 114

2018-10-31 22:23  
Реліз оновлено!

Додано 9-10 серії!

tpolit 
Попереджень: 1
Попереджень: 1 


З нами з: 10.01.15
Востаннє: 04.12.20
Повідомлень: 642

2018-11-01 23:32  
Щось я, починаючи з сьомої серії, взагалі не розумію, що відбувається у цьому фільмі. Дивлюся зараз дев'яту. Сподіваюся, у кінці хтось таки вийде з-за лаштунків і розкаже, що то було таке.
don pedro 
Попереджень: 1
Попереджень: 1 


З нами з: 29.06.11
Востаннє: 04.12.20
Повідомлень: 18249

2019-01-28 22:39  
Серіал продовжено на другий сезон.
behemot86 
Свій


З нами з: 04.10.10
Востаннє: 02.12.20
Повідомлень: 79

2019-10-16 13:12  
Дякую. Завантажую.
Ваш часовий пояс: GMT + 2 Години

Нова тема   Відповісти