Соло. Зоряні війни: Історія / Solo: A Star Wars Story (2018) 720p-mini

Нові коментарі

Нова тема   Відповісти
Автор Повідомлення
Drool 
VIP


З нами з: 17.04.10
Востаннє: 16.10.18
Повідомлень: 1484

2018-09-27 16:16  
Соло. Зоряні війни: Історія / Solo: A Star Wars Story (2018) 720p-mini

Жанр: фантастика, фентезі, бойовик, пригодницький
Країна: США


Діти до 13 років допускаються на фільм тільки з батьками
Настійне застереження батькам. Деякий матеріал може бути невідповідним для дітей до 13 років. Цей рейтинг показує, що оцінений фільм може бути невідповідним для дітей. Батьки повинні бути особливо обережні, дозволяючи своїм маленьким дітям перегляд. Грубе або тривале насильство відсутнє; сексуальна орієнтація на наготу відсутня; деякі сцени вживання наркотиків можуть бути присутніми; можна почути одиничні вживання грубої сексуальної лексики. Присутня епізодична оголеність (не враховуючи репродуктивні органи). Присутні сексуальні натяки і натяки на гомосексуалізм чи сексуальні збочення.
Кінокомпанія: Lucasfilm,Walt Disney Pictures,Allison Shearmur Productions
Режисер: Рон Ховард
Актори: Емілія Кларк, Пол Беттані, Олден Еренрайк, Тенді Ньютон, Дональд Гловер, Джон Фавро, Вуді Гаррельсон, Йонас Суотамо, Ворвік Девіс, Фібі Воллер-Брідж

Сюжет:
Сідайте на борт «Тисячолітнього сокола» і вирушайте в далеку-далеку галактику у фільмі «Соло. Зоряні війни: Історія», новій пригоді найулюбленішого негідника в галактиці. Після серії зухвалих витівок, опинившись в темному і небезпечному кримінальному підпіллі, Хан Соло зустрічає свого величезного майбутнього другого пілота Чубакку і стикається з горезвісним гравцем Лендо Калріссіаном в подорожі, яка встановить курс для одного з найбільш малоймовірних героїв саги «Зоряні війни».


Тривалість: 02:14:46
Якість: 720p-mini
Відео:
кодек:
розмір кадру: 1280 х 536
бітрейт: 1905 кб/с
CRF: 22.0

Аудіо:
мова: українська
переклад: професійний дубльований
кодек: 5.1
бітрейт: 640 кб/с

Субтитри (форсовані):
мова: українська
тип: програмні (м'які)
формат: *.
Info + Info
Код:
[info]: frame I:1658  Avg QP:20.87  size: 48294
[info]: frame P:43488 Avg QP:22.01  size: 19795
[info]: frame B:148741 Avg QP:23.77  size:  6619
[info]: consecutive B-frames:  3.5%  3.3% 10.7% 12.0% 17.7% 36.2%  7.8%  1.8%  2.1%  1.7%  1.3%  0.8%  1.1%
[info]: mb I  I16..4: 31.1% 55.7% 13.2%
[info]: mb P  I16..4:  5.7%  9.7%  1.5%  P16..4: 44.8%  8.1% 13.9%  0.6%  0.4%    skip:15.3%
[info]: mb B  I16..4:  0.2%  0.5%  0.1%  B16..8: 34.5%  4.1%  1.4%  direct: 3.7%  skip:55.4%  L0:44.3% L1:47.8% BI: 7.9%
[info]: 8x8 transform intra:57.4% inter:59.8%
[info]: direct mvs  spatial:97.7% temporal:2.3%
[info]: coded y,uvDC,uvAC intra: 56.5% 64.8% 25.1% inter: 11.8% 17.8% 2.7%
[info]: i16 v,h,dc,p: 25% 21%  9% 46%
[info]: i8 v,h,dc,ddl,ddr,vr,hd,vl,hu:  9%  8%  4% 11% 16% 13% 15% 11% 13%
[info]: i4 v,h,dc,ddl,ddr,vr,hd,vl,hu: 10% 10%  5%  9% 14% 12% 14% 10% 14%
[info]: i8c dc,h,v,p: 32% 35% 19% 14%
[info]: Weighted P-Frames: Y:7.0% UV:5.6%
[info]: ref P L0: 53.2% 10.1% 15.6%  5.9%  4.3%  3.5%  2.5%  1.6%  1.2%  1.0%  0.9%  0.2%  0.0%
[info]: ref B L0: 80.7%  8.2%  3.6%  2.1%  1.9%  1.0%  0.9%  0.6%  0.7%  0.3%
[info]: ref B L1: 94.7%  5.3%
[info]: kb/s:1904.84

General
Unique ID                                : 302531998376831862572244737686188597456 (0xE3998B2190DF5AB609395FF4819C20D0)
Complete name                            : /mnt/disk_d/Video/Solo.A.Star.Wars.Story.2018.Ukr.Dub..720p-mini.UAGet.
Format                                   :
Format version                           : Version 4 / Version 2
File size                                : 2.40 GiB
Duration                                 : 2 h 14 min
Overall bit rate                         : 2 552 kb/s
Movie name                               : Соло. Зоряні війни: Історія / Solo: A Star Wars Story (2018) 720p-mini -=UAGet=-
Encoded date                             : UTC 2018-09-27 10:53:38
Writing application                      : v8.2.0 ('World of Adventure') 64bit
Writing library                          : libebml v1.3.1 + v1.4.2
Cover                                    : Yes
Attachments                              : cover.jpg

Video
ID                                       : 1
Format                                   : AVC
Format/Info                              : Advanced Video Codec
Format profile                           : [email protected]
Format settings                          : CABAC / 11 Ref Frames
Format settings, CABAC                   : Yes
Format settings, RefFrames               : 11 frames
Codec ID                                 : V_MPEG4/ISO/AVC
Duration                                 : 2 h 14 min
Bit rate                                 : 1 905 kb/s
Width                                    : 1 280 pixels
Height                                   : 536 pixels
Display aspect ratio                     : 2.40:1
Frame rate mode                          : Constant
Frame rate                               : 23.976 (24000/1001) FPS
Color space                              : YUV
Chroma subsampling                       : 4:2:0
Bit depth                                : 8 bits
Scan type                                : Progressive
Bits/(Pixel*Frame)                       : 0.116
Stream size                              : 1.79 GiB (75%)
Title                                    : Соло. Зоряні війни: Історія / Solo: A Star Wars Story (2018) 720p-mini -=UAGet=-
Writing library                          : core 155 r2901 7d0ff22
Encoding settings                        : cabac=1 / ref=12 / deblock=1:-3:-3 / analyse=0x3:0x133 / me=umh / subme=9 / psy=1 / psy_rd=1.00:1.00 / mixed_ref=1 / me_range=64 / chroma_me=1 / trellis=2 / 8x8dct=1 / cqm=0 / deadzone=21,11 / fast_pskip=0 / chroma_qp_offset=-4 / threads=90 / lookahead_threads=4 / sliced_threads=0 / nr=0 / decimate=1 / interlaced=0 / bluray_compat=0 / constrained_intra=0 / bframes=12 / b_pyramid=1 / b_adapt=2 / b_bias=0 / direct=3 / weightb=1 / open_gop=0 / weightp=2 / keyint=240 / keyint_min=24 / scenecut=40 / intra_refresh=0 / rc_lookahead=60 / rc=crf / mbtree=0 / crf=22.0 / qcomp=1.00 / qpmin=0 / qpmax=69 / qpstep=4 / vbv_maxrate=62500 / vbv_bufsize=78125 / crf_max=0.0 / nal_hrd=none / filler=0 / ip_ratio=1.40 / pb_ratio=1.30 / aq=0
Default                                  : Yes
Forced                                   : Yes
Color range                              : Limited
Color primaries                          : BT.709
Transfer characteristics                 : BT.709
Matrix coefficients                      : BT.709

Audio
ID                                       : 2
Format                                   : AC-3
Format/Info                              : Audio Coding 3
Format settings, Endianness              : Big
Codec ID                                 : A_AC3
Duration                                 : 2 h 14 min
Bit rate mode                            : Constant
Bit rate                                 : 640 kb/s
Channel(s)                               : 6 channels
Channel positions                        : Front: L C R, Side: L R, LFE
Sampling rate                            : 48.0 kHz
Frame rate                               : 31.250 FPS (1536 SPF)
Bit depth                                : 16 bits
Compression mode                         : Lossy
Stream size                              : 617 MiB (25%)
Title                                    : 5.1 @ 640 kbps
Language                                 : Ukrainian
Service kind                             : Complete Main
Default                                  : Yes
Forced                                   : Yes

Text
ID                                       : 3
Format                                   :
Codec ID                                 : S_TEXT/
Codec ID/Info                            : Advanced Sub Station Alpha
Duration                                 : 1 h 17 min
Bit rate                                 : 1 b/s
Count of elements                        : 16
Compression mode                         : Lossless
Stream size                              : 917 Bytes (0%)
Title                                    : Forced
Language                                 : Ukrainian
Default                                  : Yes
Forced                                   : Yes
Скріншоти
Реліз від:
Особиста оцінка: 9 - давно не бачив настільки якісне кіно


 Трекер:    Зареєстрований   

Завантажити / скачати фільм українською



відео для новачків



 Зареєстрований:   2018-09-27 16:16
 Розмір:   2.4 GB 
 Оцінка фільму:   8.9/10 (Голосів: 14)
   
Dogmad 
Частий відвідувач


З нами з: 08.11.17
Востаннє: 17.10.18
Повідомлень: 28

2018-09-29 00:45  
Цитата:
давно не бачив настільки якісне кіно

(до перегляду)
Аби біди не сталося. Зоряні війни, як класика, а штамповка фільмів рік у рік якості не додасть. Будемо надіятися, що фільм не стане серіалом, в поганому розумінні.
Фільм ще не дивився, але з Ханом(чи Ганом?), Чубакою і Лендо з купою вибухів, жартами і цікавими галактично-епічними пригодами одного контрабандиста, думаю, дуже легко зробити «цукерочку» для фанатів. І хай буде з нами Сила.
(після перегляду)
Подивився я фільм і от що скажу - круто! Неймовірні спецефекти, гарні актори, чудові персонажі, деякі сцени просто перехоплюють подих. Фільм не дає занудьгувати і час минає блискавично. Все виглядає дуже атмосферно в стилі старих Зоряних Війн, але з новим подихом. Історія Хана дуже доречно дописує історію всієї лінійки фільмів, раджу всім подивитись і самим переконатися наскільки фільм крутий. Звичайно були й деякі недоречності, як от підірвати себе за гроші, або втікати Лендо без оплати та ще дещо... А ближче до кінця показали й одного рогатого червоного дядечка, як із приквелу, що натякає на продовження, абощо. Ще в фільмі немає нічого про джедаїв і про «Силу», але вона тут і не потрібна, це дещо інше, масштаб менший.
Моя оцінка 9 з 10, дивитися всім.

Ваш часовий пояс: GMT + 2 Години

Нова тема   Відповісти