Життя комах (Пригоди Флiка) / A Bug's Life (1998) 1080p 2xUkr/Eng | Sub Ukr/Eng

Нові коментарі

Нова тема   Відповісти
Автор Повідомлення
staf777 
Попереджень: 1
Попереджень: 1 


З нами з: 16.11.16
Востаннє: 16.11.18
Повідомлень: 1746

2018-09-27 15:05  
Життя комах (Пригоди Флiка) / A Bug's Life (1998) 1080p 2xUkr/Eng | Sub Ukr/Eng

Життя комах (Пригоди Флiка) / A Bug's Life (1998) 1080p 2xUkr/Eng | Sub Ukr/Eng


Жанр: анімація, пригоди, комедія
Країна: США



Кінокомпанія: Pixar Animation Studios, Walt Disney Pictures
Режисер: Джон Лассетер / John Lasseter, Ендрю Стентон / Andrew Stanton
Актори: Дейв Фоулі / Dave Foley, Кевін Спейсі / Kevin Spacey, Джулія Луїс-Дрейфус / Julia Louis-Dreyfus, Хайден Панеттьєрі / Hayden Panettiere, Філліс Диллер / Phyllis Diller, Річард Кайнд / Richard Kind, Девід Хайд Пірс / David Hyde Pierce, Джо Ренфт / Joe Ranft, Деніс Лірі / Denis Leary, Джонатан Харріс / Jonathan Harris, Медлін Кан / Madeline Kahn, Боні Хант / Bonnie Hunt, Майкл МакШейн / Michael McShane, Джон Разенбенг / John Ratzenberger, Бред Гарет / Brad Garrett, та інші.

Сюжет:
Колонія мурах, що живе на невеликому острові, зазнає постійних нападів банди сарани, що вимагає в них їстівні припаси. Одного разу, коли чергова партія харчів була вже зібрана і очікували прибуття банди, мураха на ім'я Флік, винахідник-фантазер, при проведенні випробувань механічної прибиральної машини, випадково зіштовхує зібрані харчі в струмок. Саранча в результаті чого збільшила данину. Флік вирішив протистояти цьому...


Тривалість: 01:34:53
Якість: 1080p
Відео:
кодек:
розмір кадру: 1920х816
бітрейт: 10.0 Мб/с

Аудіо # 1:
мова: українська
переклад: професійний дубльований | LeDoyen Studio
кодек: 2.0
бітрейт: 192 кб/с

Аудіо # 2:
мова: українська
переклад: любительський багатоголосий закадровий | Diatrema
кодек: 5.1
бітрейт: 448 кб/с

Аудіо # 3:
мова: англійська
переклад: оригінал
кодек: 5.1
бітрейт: 384 кб/с

Субтитри: (повні, DVD R5, Редакція: xfiles)
мова: українська
тип: програмні (м'які)
формат: *.srt

Субтитри:
мова: англійська
тип: програмні (м'які)
формат: *.srt
Info
General
Unique ID : 15527371072635909823322252042781122350 (0xBAE76800041225EFE8A2A3D85B8DF2E)
Complete name : S:\A Bug's Life (1998) 1080p [2xUKR_ENG] [Hurtom].
Format :
Format version : Version 4 / Version 2
File size : 7.81 GiB
Duration : 1 h 34 min
Overall bit rate : 11.8 Mb/s
Movie name : A Bug's Life (1998) 1080p [2xUKR_ENG] [Hurtom]
Encoded date : UTC 2018-09-27 12:01:44
Writing application : v24.0.0 ('Beyond The Pale') 64-bit
Writing library : libebml v1.3.6 + v1.4.9
Cover : Yes
Attachments : cover.jpg

Video
ID : 1
Format : AVC
Format/Info : Advanced Video Codec
Format profile : [email protected]
Format settings : CABAC / 5 Ref Frames
Format settings, CABAC : Yes
Format settings, ReFrames : 5 frames
Format settings, GOP : N=1
Codec ID : V_MPEG4/ISO/AVC
Duration : 1 h 34 min
Bit rate : 10.5 Mb/s
Width : 1 920 pixels
Height : 816 pixels
Display aspect ratio : 2.35:1
Frame rate mode : Constant
Frame rate : 23.976 (24000/1001) FPS
Color space : YUV
Chroma subsampling : 4:2:0
Bit depth : 8 bits
Scan type : Progressive
Bits/(Pixel*Frame) : 0.279
Stream size : 6.96 GiB (89%)
Title : ...(1080p)
Writing library : core 67 r1145M d2e1e1c
Encoding settings : cabac=1 / ref=5 / deblock=1:-3:-3 / analyse=0x3:0x113 / me=umh / subme=9 / psy_rd=1.3:0.2 / mixed_ref=1 / me_range=64 / chroma_me=1 / trellis=2 / 8x8dct=1 / cqm=0 / deadzone=21,11 / chroma_qp_offset=-3 / threads=6 / nr=0 / decimate=1 / mbaff=0 / bframes=5 / b_pyramid=1 / b_adapt=2 / b_bias=0 / direct=3 / wpredb=1 / keyint=250 / keyint_min=25 / scenecut=40 / rc=2pass / bitrate=10497 / ratetol=1.0 / qcomp=0.60 / qpmin=10 / qpmax=51 / qpstep=4 / cplxblur=20.0 / qblur=0.5 / ip_ratio=1.40 / pb_ratio=1.30 / aq=1:1.00
Language : English
Default : Yes
Forced : No

Audio #1
ID : 2
Format : AC-3
Format/Info : Audio Coding 3
Codec ID : A_AC3
Duration : 1 h 34 min
Bit rate mode : Constant
Bit rate : 192 kb/s
Channel(s) : 2 channels
Channel positions : Front: L R
Sampling rate : 48.0 kHz
Frame rate : 31.250 FPS (1536 SPF)
Bit depth : 16 bits
Compression mode : Lossy
Stream size : 130 MiB (2%)
Title : 2.0 @ 192 kbps - DUB
Language : Ukrainian
Service kind : Complete Main
Default : Yes
Forced : Yes

Audio #2
ID : 3
Format : AC-3
Format/Info : Audio Coding 3
Codec ID : A_AC3
Duration : 1 h 34 min
Bit rate mode : Constant
Bit rate : 448 kb/s
Channel(s) : 6 channels
Channel positions : Front: L C R, Side: L R, LFE
Sampling rate : 48.0 kHz
Frame rate : 31.250 FPS (1536 SPF)
Bit depth : 16 bits
Compression mode : Lossy
Stream size : 304 MiB (4%)
Title : 5.1 @ 448 kbps - MVO, Diatrema
Language : Ukrainian
Service kind : Complete Main
Default : No
Forced : No

Audio #3
ID : 4
Format : AC-3
Format/Info : Audio Coding 3
Codec ID : A_AC3
Duration : 1 h 34 min
Bit rate mode : Constant
Bit rate : 640 kb/s
Channel(s) : 6 channels
Channel positions : Front: L C R, Side: L R, LFE
Sampling rate : 48.0 kHz
Frame rate : 31.250 FPS (1536 SPF)
Bit depth : 16 bits
Compression mode : Lossy
Stream size : 434 MiB (5%)
Language : English
Service kind : Complete Main
Default : No
Forced : No

Text #1
ID : 5
Format : UTF-8
Codec ID : S_TEXT/UTF8
Codec ID/Info : UTF-8 Plain Text
Duration : 1 h 32 min
Bit rate : 111 b/s
Count of elements : 1356
Stream size : 75.8 KiB (0%)
Title : Full
Language : Ukrainian
Default : No
Forced : No

Text #2
ID : 6
Format : UTF-8
Codec ID : S_TEXT/UTF8
Codec ID/Info : UTF-8 Plain Text
Duration : 1 h 34 min
Bit rate : 73 b/s
Count of elements : 1491
Stream size : 50.7 KiB (0%)
Title : Full
Language : English
Default : No
Forced : No






Джерело: &
Особиста оцінка: 10 - без зайвих вагань рекомендую всім!
Життя комах (Пригоди Флiка) / A Bug's Life (1998) 1080p 2xUkr/Eng | Sub Ukr/Eng

Життя комах (Пригоди Флiка) / A Bug's Life (1998) 1080p 2xUkr/Eng | Sub Ukr/Eng


Срібний реліз (на рейтинг впливає 50% завантаженого)
 Трекер:    Зареєстрований   

Завантажити / скачати мультфільм українською



відео для новачків



 Зареєстрований:   2018-09-27 15:05
 Розмір:   7.81 GB 
 Оцінка мультфільму:   9.5/10 (Голосів: 4)
   
Інші релізи
Ваш часовий пояс: GMT + 2 Години

Нова тема   Відповісти