Монті Волш / Монті Уолш / Monte Walsh (2003) 1080i Ukr/Eng

Нові коментарі

Нова тема   Відповісти
Автор Повідомлення
urij546724 
Відео Гуртом - фільмокрай
Відео Гуртом - фільмокрай


З нами з: 16.03.10
Востаннє: 15.12.18
Повідомлень: 5499

2018-09-27 14:26  
Монті Волш / Монті Уолш / Monte Walsh (2003) 1080i Ukr/Eng



Жанр: романтичний, вестерн
Країна: США



Кіностудія / кінокомпанія:TNT,Brandman Productions,TWS Productions II
Режисер: Саймон Вінсер / Simon Wincer
Актори: Том Селлек (Tom Selleck), Ізабелла Росселліні (Isabella Rossellini), Кейт Кередайн (Keith Carradine), Джордж Ідс (George Eads), Роберт Керредайн (Robert Carradine)...

Сюжет:
Монті Волш і Чет Роллінз - старі друзі-ковбої. Їх життя складаються з місяців роботи на ранчо і рідкісних поїздок в місто. У Монті давні стосунки з повією Мартіною, а Чет зачарований вдовою-власницею промислової крамниці. Дружба і суперництво з іншими ковбоями наповнюють дні життя героїв. Але одного разу все це змінюється. Їх підручний Шорті Естін причетний до вбивства...


Тривалість: 01:56:43
Якість: 1080i
Відео:
кодек:
розмір кадру: 1920 х 1080
бітрейт: 5064 кб/с
частота кадрів: 25 к/с (fps) (насправді 24 к/с (fps))

Аудіо #1:
мова: українська
переклад: двоголосий закадровий
кодек: 2.0
бітрейт: 224 кб/с
запис звуку з каналу: Київ
озвучено: студією КІТ

Аудіо #2:
мова: англійська
переклад: оригінал
кодек: 2.0
бітрейт: 224 кб/с

Субтитри #1:
мова: українська
тип: програмні (м'які)
формат: *.pgs
примітка: субтитри на відрізок 00:30:56-00:31:10. Доріжка була пошкоджена і у кількох місцях слова важко зрозуміти, тож зроблені субтитри, правда не на усі проблемні фрагменти.
Media info:
General
ID : 1 (0x1)
Format : MPEG-TS
File size : 4.73 GiB
Duration : 1 h 56 min
Overall bit rate mode : Variable
Overall bit rate : 5 804 kb/s
Maximum Overall bit rate : 35.5 Mb/s

Video
ID : 4113 (0x1011)
Menu ID : 1 (0x1)
Format : AVC
Format/Info : Advanced Video Codec
Format profile : [email protected]
Format settings : CABAC / 3 Ref Frames
Format settings, CABAC : Yes
Format settings, ReFrames : 3 frames
Format settings, GOP : M=4, N=32
Codec ID : 27
Duration : 1 h 56 min
Bit rate mode : Variable
Bit rate : 5 064 kb/s
Maximum bit rate : 40.0 Mb/s
Width : 1 920 pixels
Height : 1 080 pixels
Display aspect ratio : 16:9
Frame rate : 25.000 FPS
Standard : Component
Color space : YUV
Chroma subsampling : 4:2:0
Bit depth : 8 bits
Scan type : Interlaced
Scan type, store method : Separated fields
Scan order : Top Field First
Bits/(Pixel*Frame) : 0.098
Stream size : 4.12 GiB (87%)
Color range : Limited
Color primaries : BT.709
Transfer characteristics : BT.709
Matrix coefficients : BT.709

Audio #1
ID : 4352 (0x1100)
Menu ID : 1 (0x1)
Format : AC-3
Format/Info : Audio Coding 3
Codec ID : 129
Duration : 1 h 56 min
Bit rate mode : Constant
Bit rate : 224 kb/s
Channel(s) : 2 channels
Channel positions : Front: L R
Sampling rate : 48.0 kHz
Frame rate : 31.250 FPS (1536 SPF)
Bit depth : 16 bits
Compression mode : Lossy
Stream size : 187 MiB (4%)
Language : Ukrainian
Service kind : Complete Main

Audio #2
ID : 4353 (0x1101)
Menu ID : 1 (0x1)
Format : AC-3
Format/Info : Audio Coding 3
Codec ID : 129
Duration : 1 h 56 min
Bit rate mode : Constant
Bit rate : 224 kb/s
Channel(s) : 2 channels
Channel positions : Front: L R
Sampling rate : 48.0 kHz
Frame rate : 31.250 FPS (1536 SPF)
Bit depth : 16 bits
Compression mode : Lossy
Stream size : 187 MiB (4%)
Language : English
Service kind : Complete Main

Text
ID : 4608 (0x1200)
Menu ID : 1 (0x1)
Format : PGS
Codec ID : 144
Language : Ukrainian
Скріншоти:





Трейлери:

Семпл
Джерело 1_________Джерело 2_________Джерело 3_________Джерело 4_________Джерело 5
У випадку, якщо з усіх джерел семпл видалять, прохання повідомити мені у ПРИВАТ


Подяка:

1. Пану Technomate за запис з ТБ.


Джерело:


Срібний реліз (на рейтинг впливає 50% завантаженого)
 Трекер:    Зареєстрований   

Завантажити / скачати фільм українською



відео для новачків



 Зареєстрований:   2018-09-27 14:26
 Розмір:   4.73 GB 
 Оцінка фільму:   9/10 (Голосів: 4)
 Прохання залишати коментарі і не тікати з роздачі.
   
+380954897458 
Свій


З нами з: 02.06.17
Востаннє: 15.12.18
Повідомлень: 103

2018-10-01 09:12  
Зовсім не обов'язковий рімейк. Оригінальний "Монті Уолш" з Лі Марвіном і нашим Палагнюком майже нічим не відрізняється. Можна сподіватися, що вестерни 60-70-х колись з'являться на толоці? Дуже хотілося б їх передивитися українською.
Ваш часовий пояс: GMT + 2 Години

Нова тема   Відповісти