Червона шапочка / Red Riding Hood (2011) AVC Ukr/Eng | Sub Eng

Нові коментарі

Нова тема   Відповісти
Автор Повідомлення
staf777 
Відео Гуртом - підтримка та поширення
Відео Гуртом - підтримка та поширення


З нами з: 16.11.16
Востаннє: 20.11.19
Повідомлень: 3034

2018-09-27 10:42  
Червона шапочка / Red Riding Hood (2011) AVC Ukr/Eng | Sub Eng

Червона шапочка / Red Riding Hood (2011) AVC Ukr/Eng | Sub Eng


Жанр: фентезі, жахи, містика
Країна: США, Канада



Кінокомпанія: Appian Way, Random Films, Warner Bros. Pictures; мейджор – Warner Bros
Режисер: Катрін Хардвік
Актори: Аманда Сейфрід, Гарі Олдман, Біллі Бурк, Шилоу Фернандез, Макс Айронз

Сюжет:
Готичне перекладення казки Шарля Перро «Червона шапочка», в якому головну героїню переслідує перевертень. Допомогти дівчині намагається закоханий в неї дроворуб Пітер.


Тривалість: 01:40:24 (Альтернативна версія)
Якість: AVC [ріп з Blu-Ray Remux]
Відео:
кодек:
розмір кадру: 1056x440
бітрейт: 2222 кб/с

Аудіо # 1:
мова: українська
переклад: професійний дубльований
кодек: 5.1
бітрейт: 384 кб/с

Аудіо # 2:
мова: англійська
переклад: оригінал
кодек: 5.1
бітрейт: 448 кб/с

Джерело озвучення:


Субтитри:
мова: українська
тип: програмні (м'які)
формат: *.srt

Субтитри:
мова: англійська
тип: програмні (м'які)
формат: *.srt
Скріншоти



MI
General
Unique ID : 272853909744513575439230536857524134090 (0xCD45C063BF13442998B520D9233860CA)
Complete name : G:\Майбутні релізи\Red Riding Hood (2011) AVC [UKR_ENG] [Hurtom].
Format :
Format version : Version 4 / Version 2
File size : 2.14 GiB
Duration : 1 h 40 min
Overall bit rate : 3 057 kb/s
Movie name : Red Riding Hood (2011) AVC [UKR_ENG] [Hurtom]
Encoded date : UTC 2018-09-27 08:29:48
Writing application : v24.0.0 ('Beyond The Pale') 64-bit
Writing library : libebml v1.3.6 + v1.4.9
Cover : Yes
Attachments : cover.jpg

Video
ID : 1
Format : AVC
Format/Info : Advanced Video Codec
Format profile : [email protected]
Format settings : CABAC / 9 Ref Frames
Format settings, CABAC : Yes
Format settings, ReFrames : 9 frames
Codec ID : V_MPEG4/ISO/AVC
Duration : 1 h 40 min
Bit rate : 2 222 kb/s
Width : 1 056 pixels
Height : 440 pixels
Display aspect ratio : 2.40:1
Frame rate mode : Constant
Frame rate : 23.976 (24000/1001) FPS
Color space : YUV
Chroma subsampling : 4:2:0
Bit depth : 8 bits
Scan type : Progressive
Bits/(Pixel*Frame) : 0.199
Stream size : 1.56 GiB (73%)
Writing library : core 115 r1995 c1e60b9
Encoding settings : cabac=1 / ref=9 / deblock=1:-3:-2 / analyse=0x3:0x133 / me=umh / subme=10 / psy=1 / psy_rd=1.06:0.10 / mixed_ref=0 / me_range=32 / chroma_me=1 / trellis=2 / 8x8dct=1 / cqm=0 / deadzone=21,11 / fast_pskip=0 / chroma_qp_offset=-3 / threads=3 / sliced_threads=0 / nr=0 / decimate=0 / interlaced=0 / bluray_compat=0 / constrained_intra=0 / bframes=9 / b_pyramid=2 / b_adapt=2 / b_bias=0 / direct=3 / weightb=1 / open_gop=0 / weightp=2 / keyint=250 / keyint_min=23 / scenecut=40 / intra_refresh=0 / rc=2pass / mbtree=0 / bitrate=2222 / ratetol=1.0 / qcomp=0.60 / qpmin=0 / qpmax=69 / qpstep=4 / cplxblur=20.0 / qblur=0.5 / ip_ratio=1.40 / pb_ratio=1.30 / aq=1:0.80
Language : English
Default : Yes
Forced : No

Audio #1
ID : 2
Format : AC-3
Format/Info : Audio Coding 3
Codec ID : A_AC3
Duration : 1 h 40 min
Bit rate mode : Constant
Bit rate : 384 kb/s
Channel(s) : 6 channels
Channel positions : Front: L C R, Side: L R, LFE
Sampling rate : 48.0 kHz
Frame rate : 31.250 FPS (1536 SPF)
Bit depth : 16 bits
Compression mode : Lossy
Stream size : 276 MiB (13%)
Title : Dub
Language : Ukrainian
Service kind : Complete Main
Default : Yes
Forced : Yes

Audio #2
ID : 3
Format : AC-3
Format/Info : Audio Coding 3
Codec ID : A_AC3
Duration : 1 h 40 min
Bit rate mode : Constant
Bit rate : 448 kb/s
Channel(s) : 6 channels
Channel positions : Front: L C R, Side: L R, LFE
Sampling rate : 48.0 kHz
Frame rate : 31.250 FPS (1536 SPF)
Bit depth : 16 bits
Compression mode : Lossy
Stream size : 322 MiB (15%)
Language : English
Service kind : Complete Main
Default : No
Forced : No

Text #1
ID : 4
Format : UTF-8
Codec ID : S_TEXT/UTF8
Codec ID/Info : UTF-8 Plain Text
Duration : 5 min 20 s
Bit rate : 32 b/s
Count of elements : 27
Stream size : 1.28 KiB (0%)
Title : Forced
Language : Ukrainian
Default : Yes
Forced : Yes

Text #2
ID : 5
Format : UTF-8
Codec ID : S_TEXT/UTF8
Codec ID/Info : UTF-8 Plain Text
Duration : 1 h 33 min
Bit rate : 34 b/s
Count of elements : 854
Stream size : 23.6 KiB (0%)
Language : English
Default : No
Forced : No

Menu
00:00:00.000 : en:00:00:00.000
00:08:27.215 : en:00:08:27.215
00:15:49.114 : en:00:15:49.114
00:24:23.211 : en:00:24:23.211
00:33:14.659 : en:00:33:14.659
00:40:46.569 : en:00:40:46.569
00:49:13.700 : en:00:49:13.700
00:59:23.893 : en:00:59:23.893
01:09:30.749 : en:01:09:30.749
01:18:28.453 : en:01:18:28.453
01:29:59.394 : en:01:29:59.394
01:38:11.886 : en:01:38:11.886
Джерело: &
Особиста оцінка: 0 - не дивився


 Трекер:    Зареєстрований   

Завантажити / скачати фільм українською



відео для новачків



 Зареєстрований:   2018-09-27 10:42
 Розмір:   2.14 GB 
 Оцінка фільму:   7.9/10 (Голосів: 12)
   
Інші релізи
Ваш часовий пояс: GMT + 2 Години

Нова тема   Відповісти