Червона шапочка / Red Riding Hood (2011) Remux 1080p Ukr/Eng | Sub Eng

Нові коментарі

Нова тема   Відповісти
Автор Повідомлення
staf777 
Попереджень: 1
Попереджень: 1 


З нами з: 16.11.16
Востаннє: 19.10.18
Повідомлень: 1637

2018-09-27 11:42  
Червона шапочка / Red Riding Hood (2011) Remux 1080p Ukr/Eng | Sub Eng

Червона шапочка / Red Riding Hood (2011) Remux 1080p Ukr/Eng | Sub Eng


Жанр: фентезі, жахи, містика
Країна: США, Канада



Кінокомпанія: Appian Way, Random Films, Warner Bros. Pictures; мейджор – Warner Bros
Режисер: Катрін Хардвік
Актори: Аманда Сейфрід, Гарі Олдман, Біллі Бурк, Шилоу Фернандез, Макс Айронз

Сюжет:
Готичне перекладення казки Шарля Перро «Червона шапочка», в якому головну героїню переслідує перевертень. Допомогти дівчині намагається закоханий в неї дроворуб Пітер.


Тривалість: 01:40:24 (Альтернативна версія)
Якість: Remux 1080p
Відео:
кодек:
розмір кадру: 1920x1080
бітрейт: 20.8 Мб/с

Аудіо # 1:
мова: українська
переклад: професійний дубльований
кодек: 5.1
бітрейт: 384 кб/с

Аудіо # 2:
мова: англійська
переклад: оригінал
кодек: HD MA 5.1
бітрейт: 3881 кб/с

Джерело озвучення:


Субтитри:
мова: українська
тип: програмні (м'які)
формат: *.srt

Субтитри:
мова: англійська
тип: програмні (м'які)
формат: *.srt
Скріншоти



MI
General
Unique ID : 253279034462174825331183414232584508918 (0xBE8BC48663AD2DAB03DD967A51DF55F6)
Complete name : G:\Майбутні релізи\ Red Riding Hood (2011) Remux 1080p [UKR_ENG] [Hurtom].
Format :
Format version : Version 4 / Version 2
File size : 16.3 GiB
Duration : 1 h 40 min
Overall bit rate mode : Variable
Overall bit rate : 23.2 Mb/s
Movie name : Red Riding Hood (2011) Remux 1080p [UKR_ENG] [Hurtom]
Encoded date : UTC 2018-09-27 17:10:10
Writing application : v24.0.0 ('Beyond The Pale') 64-bit
Writing library : libebml v1.3.6 + v1.4.9
Cover : Yes
Attachments : cover.jpg

Video
ID : 1
Format : AVC
Format/Info : Advanced Video Codec
Format profile : [email protected]
Format settings : CABAC / 2 Ref Frames
Format settings, CABAC : Yes
Format settings, ReFrames : 2 frames
Codec ID : V_MPEG4/ISO/AVC
Duration : 1 h 40 min
Bit rate mode : Variable
Bit rate : 18.9 Mb/s
Width : 1 920 pixels
Height : 1 080 pixels
Display aspect ratio : 16:9
Frame rate mode : Constant
Frame rate : 23.976 (24000/1001) FPS
Color space : YUV
Chroma subsampling : 4:2:0
Bit depth : 8 bits
Scan type : Progressive
Bits/(Pixel*Frame) : 0.381
Stream size : 13.3 GiB (82%)
Title : Red Riding Hood
Language : English
Default : Yes
Forced : No

Audio #1
ID : 2
Format : AC-3
Format/Info : Audio Coding 3
Codec ID : A_AC3
Duration : 1 h 40 min
Bit rate mode : Constant
Bit rate : 384 kb/s
Channel(s) : 6 channels
Channel positions : Front: L C R, Side: L R, LFE
Sampling rate : 48.0 kHz
Frame rate : 31.250 FPS (1536 SPF)
Bit depth : 16 bits
Compression mode : Lossy
Stream size : 276 MiB (2%)
Title : Dub
Language : Ukrainian
Service kind : Complete Main
Default : Yes
Forced : Yes

Audio #2
ID : 3
Format :
Format/Info : Digital Theater Systems
Format profile : MA / Core
Codec ID : A_DTS
Duration : 1 h 40 min
Bit rate mode : Variable / Constant
Bit rate : 3 840 kb/s / 1 509 kb/s
Channel(s) : 6 channels
Channel positions : Front: L C R, Side: L R, LFE
Sampling rate : 48.0 kHz
Frame rate : 93.750 FPS (512 SPF)
Bit depth : 24 bits
Compression mode : Lossless / Lossy
Stream size : 2.71 GiB (17%)
Title : Original
Language : English
Default : No
Forced : No

Text #1
ID : 4
Format : UTF-8
Codec ID : S_TEXT/UTF8
Codec ID/Info : UTF-8 Plain Text
Duration : 5 min 20 s
Bit rate : 32 b/s
Count of elements : 27
Stream size : 1.28 KiB (0%)
Title : Forced
Language : Ukrainian
Default : Yes
Forced : Yes

Text #2
ID : 5
Format : PGS
Muxing mode : zlib
Codec ID : S_HDMV/PGS
Codec ID/Info : Picture based subtitle format used on BDs/HD-DVDs
Duration : 1 h 38 min
Bit rate : 21.3 kb/s
Count of elements : 2008
Stream size : 15.0 MiB (0%)
Title : ENG
Language : English
Default : No
Forced : No

Menu
00:00:00.000 : en:Chapter 01
00:08:27.214 : en:Chapter 02
00:15:49.115 : en:Chapter 03
00:24:23.212 : en:Chapter 04
00:33:14.659 : en:Chapter 05
00:40:46.569 : en:Chapter 06
00:49:13.701 : en:Chapter 07
00:59:23.894 : en:Chapter 08
01:09:30.750 : en:Chapter 09
01:18:28.454 : en:Chapter 10
01:29:59.394 : en:Chapter 11
01:38:11.886 : en:Chapter 12
Джерело: &
Особиста оцінка: 0 - не дивився
Червона шапочка / Red Riding Hood (2011) Remux 1080p Ukr/Eng | Sub Eng

Червона шапочка / Red Riding Hood (2011) Remux 1080p Ukr/Eng | Sub Eng


Золотий реліз (завантажене не впливає на рейтинг)
 Трекер:    Зареєстрований   

Завантажити / скачати фільм українською



відео для новачків



 Зареєстрований:   2018-09-28 19:18
 Розмір:   16.27 GB 
 Оцінка фільму:   4/10 (Голосів: 2)
   
Інші релізи
bot 
робот


З нами з: 30.09.07
Востаннє: 26.05.05
Повідомлень: 19962

2018-09-28 19:17  
Тему перенесено з Анонси релізів до форуму Фільми в HD


staf777

vetsel 
Новенький


З нами з: 17.07.16
Востаннє: 18.10.18
Повідомлень: 4

2018-09-29 10:25  
Може краще "Червоний капелюшок"?
Oleksa9 
VIP


З нами з: 17.05.12
Востаннє: 19.10.18
Повідомлень: 309

2018-09-29 14:08  
vetsel написано:
Може краще "Червоний капелюшок"?

Варіантів багато, але ж обирають виключно на ворожий манер....

Ваш часовий пояс: GMT + 2 Години

Нова тема   Відповісти