Ваяна / Моана / Moana (2016) 1080 H.265 Ukr/Eng | Sub Eng

Нові коментарі

Нова тема   Відповісти
Автор Повідомлення
Anonymous 







2018-09-27 09:42  
Ваяна / Моана / Moana (2016) 1080 H.265 Ukr/Eng | Sub Eng

Ваяна / Моана / Moana (2016) 1080 H.265 Ukr/Eng | Sub Eng


Жанр: анімація, музичний, фентезі, комедія, пригодницький, сімейний
Країна: США
Кінокомпанія: Walt Disney Animation Studios, Walt Disney Pictures
Режисер: Рон Клементс / Ron Clements, Джон Маскер / John Musker, Дон Голл / Don Hall, Кріс Вільямс / Chris Williams
Актори: Аулії Кравалхо / Auli'i Cravalho, Двейн Джонсон / Dwayne Johnson, Рейчел Хаус / Rachel House, Темуера Моррісон / Temuera Morrison, Джемейн Клемент / Jemaine Clement, Алан Т'юдік / Alan Tudyk, Ніколь Шерзінгер / Nicole Scherzinger та інші

Сюжет:
Серед мальовничих островів Тихого океану юна дівчина вирушає у сповнену небезпек мандрівку. Завдань всього-нічого: виконати заповіти предків, знайти втрачену родину, подолати безкрайній океан, який населяють страхітливі морські істоти і знайти своє справжнє призначення. Час вирушати в захопливу і яскраву анімаційну експедицію!

Тривалість: 01:47:12
Якість:

Відео:
кодек: H.265 (HEVC)
розмір кадру: 1920 x 804
бітрейт: 6 412 кб/с
бітова глибина: 10 біт

Увага! Перед завантаженням переконайтесь, що ваш пристрій відтворення (та/або ПЗ) підтримує H.265 (HEVC)

Аудіо # 1:
мова: українська
переклад: професійний дубльований
кодек: 5.1
бітрейт: 1510 кб/с

Аудіо # 2:
мова: англійська
переклад: оригінал
кодек: AC-3 5.1
бітрейт: 640 кб/с

Субтитри # 1-2: (Full, SHD)
мова: англійська
тип: програмні (м'які)
формат: *.srt


Info
Код:
General
Unique ID                                : 229321260933472025089833814327643016870 (0xAC85AB17C84E15B0F36B115BE72F0EA6)
Complete name                            : Moana (2016) 1080p H.265 [UKR_ENG] [Hurtom].
Format                                   :
Format version                           : Version 4
File size                                : 6.41 GiB
Duration                                 : 1 h 47 min
Overall bit rate                         : 8 564 kb/s
Movie name                               : Ваяна / Моана / Moana (2016)
Encoded date                             : UTC 2019-12-02 09:14:12
Writing application                      : v20.0.0 ('I Am The Sun') 64-bit
Writing library                          : libebml v1.3.5 + v1.4.8
Cover                                    : Yes
Attachments                              : cover.jpg

Video
ID                                       : 1
Format                                   : HEVC
Format/Info                              : High Efficiency Video Coding
Format profile                           : Main [email protected]@High
Codec ID                                 : V_MPEGH/ISO/HEVC
Duration                                 : 1 h 47 min
Bit rate                                 : 6 411 kb/s
Width                                    : 1 920 pixels
Height                                   : 804 pixels
Display aspect ratio                     : 2.40:1
Frame rate mode                          : Constant
Frame rate                               : 23.976 (23976/1000) FPS
Original frame rate                      : 23.976 (24000/1001) FPS
Color space                              : YUV
Chroma subsampling                       : 4:2:0
Bit depth                                : 10 bits
Bits/(Pixel*Frame)                       : 0.173
Stream size                              : 4.80 GiB (75%)
Title                                    : Ваяна / Моана / Moana (2016)
Writing library                          : x265 3.2.1+1-b5c86a64bbbe:[Windows][MSVC 1923][64 bit] 10bit
Encoding settings                        : cpuid=1111039 / frame-threads=3 / numa-pools=12 / wpp / no-pmode / no-pme / no-psnr / no-ssim / log-level=2 / input-csp=1 / input-res=1920x804 / interlace=0 / total-frames=138564 / level-idc=41 / high-tier=1 / uhd-bd=0 / ref=5 / no-allow-non-conformance / no-repeat-headers / annexb / no-aud / no-hrd / info / hash=0 / no-temporal-layers / open-gop / min-keyint=23 / keyint=240 / gop-lookahead=0 / bframes=12 / b-adapt=2 / b-pyramid / bframe-bias=0 / rc-lookahead=60 / lookahead-slices=4 / scenecut=40 / radl=0 / no-splice / no-intra-refresh / ctu=32 / min-cu-size=8 / rect / amp / max-tu-size=32 / tu-inter-depth=4 / tu-intra-depth=4 / limit-tu=1 / rdoq-level=2 / dynamic-rd=0.00 / no-ssim-rd / signhide / no-tskip / nr-intra=0 / nr-inter=0 / no-constrained-intra / no-strong-intra-smoothing / max-merge=4 / limit-refs=2 / limit-modes / me=3 / subme=7 / merange=57 / temporal-mvp / no-hme / weightp / weightb / no-analyze-src-pics / deblock=-3:-3 / no-sao / no-sao-non-deblock / rd=6 / selective-sao=0 / no-early-skip / no-rskip / no-fast-intra / no-tskip-fast / no-cu-lossless / no-b-intra / no-splitrd-skip / rdpenalty=0 / psy-rd=2.00 / psy-rdoq=1.00 / no-rd-refine / no-lossless / cbqpoffs=0 / crqpoffs=0 / rc=crf / crf=20.0 / qcomp=0.70 / qpstep=4 / stats-write=0 / stats-read=0 / vbv-maxrate=50000 / vbv-bufsize=50000 / vbv-init=0.9 / crf-max=0.0 / crf-min=0.0 / ipratio=1.40 / pbratio=1.30 / aq-mode=1 / aq-strength=1.00 / no-cutree / zone-count=0 / no-strict-cbr / qg-size=32 / no-rc-grain / qpmax=69 / qpmin=0 / no-const-vbv / sar=1 / overscan=0 / videoformat=5 / range=0 / colorprim=1 / transfer=1 / colormatrix=1 / chromaloc=0 / display-window=0 / cll=0,0 / min-luma=0 / max-luma=1023 / log2-max-poc-lsb=8 / vui-timing-info / vui-hrd-info / slices=1 / no-opt-qp-pps / no-opt-ref-list-length-pps / no-multi-pass-opt-rps / scenecut-bias=0.05 / no-opt-cu-delta-qp / no-aq-motion / no-hdr / no-hdr-opt / no-dhdr10-opt / no-idr-recovery-sei / analysis-reuse-level=5 / scale-factor=0 / refine-intra=0 / refine-inter=0 / refine-mv=1 / refine-ctu-distortion=0 / no-limit-sao / ctu-info=0 / no-lowpass-dct / refine-analysis-type=0 / copy-pic=1 / max-ausize-factor=1.0 / no-dynamic-refine / no-single-sei / no-hevc-aq / no-svt / no-field / qp-adaptation-range=1.00
Default                                  : Yes
Forced                                   : No
Color range                              : Limited
Color primaries                          : BT.709
Transfer characteristics                 : BT.709
Matrix coefficients                      : BT.709

Audio #1
ID                                       : 2
Format                                   :
Format/Info                              : Digital Theater Systems
Codec ID                                 : A_DTS
Duration                                 : 1 h 47 min
Bit rate mode                            : Constant
Bit rate                                 : 1 509 kb/s
Channel(s)                               : 6 channels
Channel layout                           : C L R Ls Rs LFE
Sampling rate                            : 48.0 kHz
Frame rate                               : 93.750 FPS (512 SPF)
Bit depth                                : 24 bits
Compression mode                         : Lossy
Stream size                              : 1.13 GiB (18%)
Title                                    : / 5.1 Ch / 1509 kbps / ПД
Language                                 : Ukrainian
Default                                  : Yes
Forced                                   : Yes

Audio #2
ID                                       : 3
Format                                   : AC-3
Format/Info                              : Audio Coding 3
Commercial name                          : Dolby Digital
Codec ID                                 : A_AC3
Duration                                 : 1 h 47 min
Bit rate mode                            : Constant
Bit rate                                 : 640 kb/s
Channel(s)                               : 6 channels
Channel layout                           : L R C LFE Ls Rs
Sampling rate                            : 48.0 kHz
Frame rate                               : 31.250 FPS (1536 SPF)
Bit depth                                : 16 bits
Compression mode                         : Lossy
Stream size                              : 491 MiB (7%)
Title                                    : / 5.1 Ch / 640 kbps / Original
Language                                 : English
Service kind                             : Complete Main
Default                                  : No
Forced                                   : No

Text #1
ID                                       : 4
Format                                   : UTF-8
Codec ID                                 : S_TEXT/UTF8
Codec ID/Info                            : UTF-8 Plain Text
Duration                                 : 1 h 45 min
Bit rate                                 : 44 b/s
Count of elements                        : 1246
Stream size                              : 34.7 KiB (0%)
Title                                    : Full
Language                                 : English
Default                                  : No
Forced                                   : No

Text #2
ID                                       : 5
Format                                   : UTF-8
Codec ID                                 : S_TEXT/UTF8
Codec ID/Info                            : UTF-8 Plain Text
Duration                                 : 1 h 45 min
Bit rate                                 : 44 b/s
Count of elements                        : 1344
Stream size                              : 34.0 KiB (0%)
Title                                    : SHD
Language                                 : English
Default                                  : No
Forced                                   : No

Menu
00:00:00.000                             : en:00:00:00.000
00:07:15.685                             : en:00:07:15.685
00:11:59.802                             : en:00:11:59.802
00:16:13.764                             : en:00:16:13.764
00:21:29.580                             : en:00:21:29.580
00:28:02.806                             : en:00:28:02.806
00:32:11.346                             : en:00:32:11.346
00:35:16.281                             : en:00:35:16.281
00:41:36.869                             : en:00:41:36.869
00:45:04.869                             : en:00:45:04.869
00:49:10.322                             : en:00:49:10.322
00:53:21.031                             : en:00:53:21.031
00:57:33.325                             : en:00:57:33.325
01:05:45.024                             : en:01:05:45.024
01:10:46.075                             : en:01:10:46.075
01:12:52.118                             : en:01:12:52.118
01:15:41.954                             : en:01:15:41.954
01:23:17.075                             : en:01:23:17.075
01:29:50.927                             : en:01:29:50.927
01:36:13.726                             : en:01:36:13.726
Світлини




Джерело: &
Особиста оцінка: 0 - не дивився


 Трекер:    Зареєстрований   

Завантажити / скачати мультфільм українською



відео для новачків



 Зареєстрований:   2019-12-03 21:56
 Розмір:   6.41 GB 
 Оцінка мультфільму:   9.7/10 (Голосів: 21)
   
Інші релізи
   Ваяна / Моана / Moana (2016) AVC Ukr/Eng | Sub Eng AngryBirdsUA  22 / 0   2.53 GB   2019-12-11 11:59 
   Ваяна / Моана / Moana (2016) 720p-mini (60 fps) Drool  0 / 0   5.09 GB   2017-05-16 11:58 
   Ваяна / Моана / Moana (2016) 1080p 3D [Half OverUnder] Ukr/Eng | Sub Eng igor911  2 / 0   13.57 GB   2017-04-13 18:43 
   Ваяна / Моана / Moana (2016) 1080 Ukr/Eng | Sub Eng Electroz  18 / 0   9.87 GB   2017-04-13 00:00 
   Ваяна / Моана / Moana (2016) 720p Ukr/Eng | Sub Eng igor911  24 / 0   4.15 GB   2017-04-12 23:41 
   Ваяна / Моана / Moana (2016) Remux 1080p Ukr/Eng | Sub Eng 11FrYkT  4 / 0   27.17 GB   2017-04-12 18:38 
   Ваяна / Моана / Moana (2016) Gelios  35 / 0   1.45 GB   2017-04-12 18:38 
Anonymous 







2019-12-03 21:56  
Якісніший відеоряд.
Ваш часовий пояс: GMT + 2 Години

Нова тема   Відповісти