Друга Світова. Забута війна Китаю (Китай у ІІ світовій) / WWII. China's Forgotten War (2015) 720p

Нові коментарі

Нова тема   Відповісти
Автор Повідомлення
DareDevil96 
Відео Гуртом - запис з ТБ
Відео Гуртом - запис з ТБ


З нами з: 23.07.10
Востаннє: 14.02.19
Повідомлень: 610

2018-09-26 21:29  
Друга Світова. Забута війна Китаю (Китай у ІІ світовій) / WWII. China's Forgotten War (2015) 720p


Жанр: документальний, історичний, війна, зброя
Країна: Сінгапур, Британія, КНР


Телеканал / кіностудія: Infocus Asia, Viasat History, TVF international
Сюжет:
Увесь світ - поле бою. Німеччина вдерлася до Польщі, у відповідь Британія та Франція оголошуюють війну проти нацистів. Майже на іншій земній півкулі відбувається ще один масштабний і жорстокий конфлікт. Китай захищається від імперської Японії, відбиваючи наступ вже від 1937 року. Що робить Китай першою учасницею Другої світової війни.


Тривалість: ~47:05
Якість: 720p
Відео:
кодек:
розмір кадру: 1280х720 (16:9)
частота кадрів: 25.000 кадр/сек
бітрейт: 3500 кб/с

Аудіо:
мова: українська
переклад: двоголосий закадровий
кодек: 2.0
бітрейт: 192 кб/с (16 кГц)

Джерело озвучення:
Звіт Info:
omplete name : F:\Завантаження\WWII. China's Forgotten War (2015) [Ukr.MEGA] 720p [Hurtom] by DareDevil96\WWII e01 [Ukr.MEGA] 720p.
Format :
Format version : Version 4 / Version 2
File size : 1.22 GiB
Duration : 47 min 4 s
Overall bit rate : 3 698 kb/s
Encoded date : UTC 2018-09-26 12:51:44
Writing application : v26.0.0 ('In The Game') 64-bit
Writing library : libebml v1.3.6 + v1.4.9

Video
ID : 1
Format : AVC
Format/Info : Advanced Video Codec
Format profile : [email protected]
Format settings : CABAC / 9 Ref Frames
Format settings, CABAC : Yes
Format settings, ReFrames : 9 frames
Codec ID : V_MPEG4/ISO/AVC
Duration : 47 min 4 s
Bit rate : 3 500 kb/s
Width : 1 280 pixels
Height : 720 pixels
Display aspect ratio : 16:9
Frame rate mode : Constant
Frame rate : 25.000 FPS
Color space : YUV
Chroma subsampling : 4:2:0
Bit depth : 8 bits
Scan type : Progressive
Bits/(Pixel*Frame) : 0.152
Stream size : 1.15 GiB (95%)
Writing library : core 146 r2538 121396c
Encoding settings : cabac=1 / ref=9 / deblock=1:-2:-2 / analyse=0x3:0x113 / me=umh / subme=10 / psy=1 / psy_rd=1.00:0.00 / mixed_ref=1 / me_range=32 / chroma_me=1 / trellis=2 / 8x8dct=1 / cqm=0 / deadzone=21,11 / fast_pskip=0 / chroma_qp_offset=-2 / threads=6 / lookahead_threads=1 / sliced_threads=0 / nr=0 / decimate=0 / interlaced=0 / bluray_compat=0 / constrained_intra=0 / bframes=9 / b_pyramid=2 / b_adapt=2 / b_bias=0 / direct=3 / weightb=1 / open_gop=0 / weightp=2 / keyint=250 / keyint_min=25 / scenecut=40 / intra_refresh=0 / rc_lookahead=40 / rc=2pass / mbtree=0 / bitrate=3500 / ratetol=1.0 / qcomp=0.60 / qpmin=10 / qpmax=51 / qpstep=4 / cplxblur=20.0 / qblur=0.5 / vbv_maxrate=14000 / vbv_bufsize=14000 / nal_hrd=none / filler=0 / ip_ratio=1.40 / pb_ratio=1.30 / aq=1:0.80
Language : English
Default : No
Forced : No

Audio
ID : 2
Format : AC-3
Format/Info : Audio Coding 3
Commercial name : Dolby Digital
Codec ID : A_AC3
Duration : 47 min 4 s
Bit rate mode : Constant
Bit rate : 192 kb/s
Channel(s) : 2 channels
Channel layout : L R
Sampling rate : 48.0 kHz
Frame rate : 31.250 FPS (1536 SPF)
Bit depth : 16 bits
Compression mode : Lossy
Stream size : 64.6 MiB (5%)
Title : ZAKADR-[MEGA]
Language : Ukrainian
Service kind : Complete Main
Default : Yes
Forced : No
Скріншоти


Джерело: DareDevil96 спеціально для
Особиста оцінка: 8 - цікаво

Ріп: alf62


Бронзовий реліз (на рейтинг впливає 75% завантаженого)
 Трекер:    Зареєстрований   

Завантажити / скачати фільм українською



відео для новачків



 Зареєстрований:   2018-09-26 21:29
 Розмір:   2.43 GB 
 Оцінка фільму:   9.5/10 (Голосів: 8)
 Друга Світова. Забута війна Китаю (Китай у ІІ світовій) / WWII. China's Forgotten War (2015) HDTVRip 720p Ukr
   
bot 
робот


З нами з: 30.09.07
Востаннє: 26.05.05
Повідомлень: 20704

2018-09-26 21:30  
Ваш часовий пояс: GMT + 2 Години

Нова тема   Відповісти