Полювання на колишню / Мисливець за головами / The Bounty Hunter (2010) 1080p 3xUkr/Eng | Sub Eng

Нові коментарі

Нова тема   Відповісти
Автор Повідомлення
staf777 
Попереджень: 1
Попереджень: 1 


З нами з: 16.11.16
Востаннє: 16.10.18
Повідомлень: 1632

2018-09-26 19:06  
Полювання на колишню / Мисливець за головами / The Bounty Hunter (2010) 1080p 3xUkr/Eng | Sub Eng

Полювання на колишню / Мисливець за головами / The Bounty Hunter (2010) 1080p 3xUkr/Eng | Sub Eng
Альтернативний постер
Жанр: комедія
Країна: США



Кінокомпанія: Columbia Pictures, Relativity Media, Original Film, Madhouse Entertainment
Режисер: Енді Теннант / Andy Tennant
Актори: Джерард Батлер / Gerard Butler, Дженніфер Еністон / Jennifer Aniston, Крістін Баранскі / Christine Baranski, Джейсон Судейкіс / Jason Sudeikis, Кеті Моріарті / Cathy Moriarty, Джеф Ґарлін / Jeff Garlin та інші.

Сюжет:
Що може бути для розлученого чоловіка кращим за можливість заарештувати колишню дружину? Саме такий шанс випав Міло Бойду, який працює "мисливцем за головами", переслідуючи порушників закону, які втікають від поліції - йому видали замовлення на Ніколь, з якою у нього колись були надзвичайно романтичні стосунки. Та є одна проблемка - свою дружину він впіймав занадто далеко від відділку поліції, в який її потрібно довезти, а сама Ніколь зовсім не бажає потрапити в лапи закону, тому поїздочка для Міло буде надзвичайно "веселою".


Тривалість: 01:50:38
Якість: 1080p
Відео:
кодек:
розмір кадру: 1920x816
бітрейт: 12.6 Mб/с

Аудіо # 1:
мова: українська
переклад: професійний дубльований
кодек: 5.1
бітрейт: 640 кб/с

Аудіо # 2:
мова: українська
переклад: багатоголосий закадровий
кодек: 2.0
бітрейт: 192 кб/с

Аудіо # 3:
мова: українська
переклад: багатоголосий закадровий
кодек: 2.0
бітрейт: 192 кб/с

Аудіо # 4:
мова: англійська
переклад: оригінал
кодек: 5.1
бітрейт: 1509 кб/с

Субтитри: [Forced]
мова: українська
тип: програмні (м'які)
формат: *.srt

Субтитри:
мова: англійська
тип: програмні (м'які)
формат: *.srt
Скріншоти




MI
General
Unique ID : 233195441343190264393534762731609160008 (0xAF6FCEEF38F1C1F55BC16A6724327948)
Complete name : G:\Комедія\The Bounty Hunter (2010) 1080p [3xUKR_ENG] [Hurtom].
Format :
Format version : Version 4 / Version 2
File size : 11.7 GiB
Duration : 1 h 50 min
Overall bit rate : 15.2 Mb/s
Movie name : The Bounty Hunter (2010) 1080p [3xUKR_ENG] [Hurtom]
Encoded date : UTC 2018-09-26 15:32:53
Writing application : v24.0.0 ('Beyond The Pale') 64-bit
Writing library : libebml v1.3.6 + v1.4.9
Cover : Yes
Attachments : cover.jpg

Video
ID : 1
Format : AVC
Format/Info : Advanced Video Codec
Format profile : [email protected]
Format settings : CABAC / 5 Ref Frames
Format settings, CABAC : Yes
Format settings, ReFrames : 5 frames
Codec ID : V_MPEG4/ISO/AVC
Duration : 1 h 50 min
Bit rate : 12.6 Mb/s
Width : 1 920 pixels
Height : 816 pixels
Display aspect ratio : 2.35:1
Frame rate mode : Constant
Frame rate : 23.976 (24000/1001) FPS
Color space : YUV
Chroma subsampling : 4:2:0
Bit depth : 8 bits
Scan type : Progressive
Bits/(Pixel*Frame) : 0.337
Stream size : 9.77 GiB (83%)
Writing library : core 122 r2184 5c85e0a
Encoding settings : cabac=1 / ref=5 / deblock=1:-3:-3 / analyse=0x3:0x113 / me=umh / subme=11 / psy=1 / psy_rd=1.05:0.00 / mixed_ref=1 / me_range=16 / chroma_me=1 / trellis=2 / 8x8dct=1 / cqm=0 / deadzone=21,11 / fast_pskip=0 / chroma_qp_offset=-2 / threads=6 / sliced_threads=0 / nr=0 / decimate=0 / interlaced=0 / bluray_compat=0 / constrained_intra=0 / bframes=8 / b_pyramid=2 / b_adapt=2 / b_bias=0 / direct=3 / weightb=1 / open_gop=0 / weightp=2 / keyint=250 / keyint_min=23 / scenecut=40 / intra_refresh=0 / rc_lookahead=40 / rc=crf / mbtree=1 / crf=18.0 / qcomp=0.80 / qpmin=0 / qpmax=69 / qpstep=4 / ip_ratio=1.30 / aq=1:0.95
Language : English
Default : Yes
Forced : No

Audio #1
ID : 2
Format : AC-3
Format/Info : Audio Coding 3
Codec ID : A_AC3
Duration : 1 h 50 min
Bit rate mode : Constant
Bit rate : 640 kb/s
Channel(s) : 6 channels
Channel positions : Front: L C R, Side: L R, LFE
Sampling rate : 48.0 kHz
Frame rate : 31.250 FPS (1536 SPF)
Bit depth : 16 bits
Compression mode : Lossy
Stream size : 506 MiB (4%)
Title : дубляж [ 6ch 640 kbps]
Language : Ukrainian
Service kind : Complete Main
Default : Yes
Forced : Yes

Audio #2
ID : 3
Format : AC-3
Format/Info : Audio Coding 3
Codec ID : A_AC3
Duration : 1 h 50 min
Bit rate mode : Constant
Bit rate : 192 kb/s
Channel(s) : 2 channels
Channel positions : Front: L R
Sampling rate : 48.0 kHz
Frame rate : 31.250 FPS (1536 SPF)
Bit depth : 16 bits
Compression mode : Lossy
Stream size : 152 MiB (1%)
Title : [UA-MVO-1+1]
Language : Ukrainian
Service kind : Complete Main
Default : No
Forced : No

Audio #3
ID : 4
Format : AC-3
Format/Info : Audio Coding 3
Codec ID : A_AC3
Duration : 1 h 50 min
Bit rate mode : Constant
Bit rate : 192 kb/s
Channel(s) : 2 channels
Channel positions : Front: L R
Sampling rate : 48.0 kHz
Frame rate : 31.250 FPS (1536 SPF)
Bit depth : 16 bits
Compression mode : Lossy
Stream size : 152 MiB (1%)
Title : [UA-MVO-ICTV]
Language : Ukrainian
Service kind : Complete Main
Default : No
Forced : No

Audio #4
ID : 5
Format :
Format/Info : Digital Theater Systems
Codec ID : A_DTS
Duration : 1 h 50 min
Bit rate mode : Constant
Bit rate : 1 509 kb/s
Channel(s) : 6 channels
Channel positions : Front: L C R, Side: L R, LFE
Sampling rate : 48.0 kHz
Frame rate : 93.750 FPS (512 SPF)
Bit depth : 24 bits
Compression mode : Lossy
Stream size : 1.17 GiB (10%)
Title : English 5.1 - 1510 kbps
Language : English
Default : No
Forced : No

Text #1
ID : 6
Format : UTF-8
Codec ID : S_TEXT/UTF8
Codec ID/Info : UTF-8 Plain Text
Duration : 1 h 24 min
Bit rate : 1 b/s
Count of elements : 25
Stream size : 720 Bytes (0%)
Title : for
Language : Ukrainian
Default : Yes
Forced : Yes

Text #2
ID : 7
Format : UTF-8
Codec ID : S_TEXT/UTF8
Codec ID/Info : UTF-8 Plain Text
Duration : 1 h 45 min
Bit rate : 71 b/s
Count of elements : 1521
Stream size : 55.2 KiB (0%)
Language : English
Default : No
Forced : No

Text #3
ID : 8
Format : UTF-8
Codec ID : S_TEXT/UTF8
Codec ID/Info : UTF-8 Plain Text
Duration : 1 h 48 min
Bit rate : 73 b/s
Count of elements : 1675
Stream size : 58.6 KiB (0%)
Title : sdh
Language : English
Default : No
Forced : No

Menu
00:00:00.000 : en:00:00:00.000
00:07:21.483 : en:00:07:21.483
00:15:15.206 : en:00:15:15.206
00:20:24.432 : en:00:20:24.432
00:28:28.665 : en:00:28:28.665
00:35:43.391 : en:00:35:43.391
00:41:41.124 : en:00:41:41.124
00:50:07.963 : en:00:50:07.963
00:55:02.049 : en:00:55:02.049
01:03:26.428 : en:01:03:26.428
01:11:15.813 : en:01:11:15.813
01:15:11.298 : en:01:15:11.298
01:23:52.361 : en:01:23:52.361
01:28:38.271 : en:01:28:38.271
01:36:51.472 : en:01:36:51.472
01:43:58.441 : en:01:43:58.441
Звукозапис з ТБ: ratbol, slavik_v_z, SgBILko
Зведення доріжки з ICTV: Arsenfpu
Джерело: &
Особиста оцінка: 0 - не дивився
Полювання на колишню / Мисливець за головами / The Bounty Hunter (2010) 1080p 3xUkr/Eng | Sub Eng

Полювання на колишню / Мисливець за головами / The Bounty Hunter (2010) 1080p 3xUkr/Eng | Sub Eng


 Трекер:    Зареєстрований   

Завантажити / скачати фільм українською



відео для новачків



 Зареєстрований:   2018-09-26 19:07
 Розмір:   11.73 GB 
 Оцінка фільму:   7.5/10 (Голосів: 4)
   
bot 
робот


З нами з: 30.09.07
Востаннє: 26.05.05
Повідомлень: 19956

2018-09-26 19:07  
Тему перенесено з Анонси релізів до форуму Фільми в HD


staf777

-Star-Lord- 
Поважний учасник


З нами з: 09.08.18
Востаннє: 17.10.18
Повідомлень: 197

2018-09-26 22:30  
Remux буде?
Ваш часовий пояс: GMT + 2 Години

Нова тема   Відповісти