Хижаки / Predators (2010) AVC Ukr/Eng | Sub Ukr/Eng

Нові коментарі

Нова тема   Відповісти
Автор Повідомлення
staf777 
Відео Гуртом - підтримка та поширення
Відео Гуртом - підтримка та поширення


З нами з: 16.11.16
Востаннє: 22.05.19
Повідомлень: 2373

2018-09-26 17:42  
Хижаки / Predators (2010) AVC Ukr/Eng | Sub Ukr/Eng

Хижаки / Predators (2010) AVC Ukr/Eng | Sub Ukr/Eng


Жанр: бойовик, пригодницький, трилер, фантастика
Країна: США



Кінокомпанія: Davis Entertainment Troublemaker Studios Twentieth Century Fox Film Corporation
Режисер: Німрод Антал / Nimród Antal
Актори: Едріен Броуді / Adrien Brody, Лоуренс Фішберн / Laurence Fishburne, Денні Трехо / Danny Trejo, Тофер Ґрейс / Topher Grace, Еліс Браґа / Alice Braga, Волтон Ґоґінс / Walton Goggins та інші

Сюжет:
Початок "перезавантаження" відомої франшизи від продюсера Роберта Родріґеса.
Дія розгортається на планеті Хижаків. Тут людям не місце. Проте якщо ви туди потрапили, будьте готові пережити такий жах, про який ви ніколи й не чули...
Група запеклих головорізів зі всіх кінців світу на цей раз битиметься з Хижаками на їх рідній планеті.


Тривалість: 01:46:53
Якість: AVC
Відео:
кодек:
розмір кадру: 1024x432
бітрейт: 2088 кб/с

Аудіо # 1:
мова: українська
переклад: професійний дубльований
кодек: 5.1
бітрейт: 448 кб/с

Аудіо # 2:
мова: українська
переклад: багатоголосий закадровий
кодек: 2.0
бітрейт: 192 кб/с

Аудіо # 3:
мова: англійська
переклад: оригінал
кодек: ACC 5.1
бітрейт: 256 кб/с

Аудіо # 4:
мова: англійська
переклад: коментарі
кодек: ACC 5.1
бітрейт: 128 кб/с

Субтитри:
мова: українська
тип: програмні (м'які)
формат: *.srt

Субтитри:
мова: англійська
тип: програмні (м'які)
формат: *.srt
Info
General
Unique ID : 298429581269972621597091273529805200039 (0xE083725A017781FF153E62016BC35AA7)
Complete name : S:\Predators (2010) AVC [2xUKR_ENG] [Hurtom].
Format :
Format version : Version 4 / Version 2
File size : 2.33 GiB
Duration : 1 h 46 min
Overall bit rate : 3 117 kb/s
Movie name : Predators (2010) AVC [2xUKR_ENG] [Hurtom]
Encoded date : UTC 2018-09-26 14:23:41
Writing application : v24.0.0 ('Beyond The Pale') 64-bit
Writing library : libebml v1.3.6 + v1.4.9
Cover : Yes
Attachments : cover.png

Video
ID : 1
Format : AVC
Format/Info : Advanced Video Codec
Format profile : [email protected]
Format settings : CABAC / 4 Ref Frames
Format settings, CABAC : Yes
Format settings, ReFrames : 4 frames
Codec ID : V_MPEG4/ISO/AVC
Duration : 1 h 46 min
Bit rate : 2 088 kb/s
Width : 1 024 pixels
Height : 432 pixels
Display aspect ratio : 2.40:1
Frame rate mode : Constant
Frame rate : 23.976 (24000/1001) FPS
Color space : YUV
Chroma subsampling : 4:2:0
Bit depth : 8 bits
Scan type : Progressive
Bits/(Pixel*Frame) : 0.197
Stream size : 1.56 GiB (67%)
Title : Predators (2010)
Writing library : core 110 r1804 e89c4cf
Encoding settings : cabac=1 / ref=4 / deblock=1:-3:-3 / analyse=0x3:0x133 / me=umh / subme=9 / psy=1 / psy_rd=1.00:0.00 / mixed_ref=1 / me_range=32 / chroma_me=1 / trellis=2 / 8x8dct=1 / cqm=0 / deadzone=21,11 / fast_pskip=0 / chroma_qp_offset=-4 / threads=3 / sliced_threads=0 / nr=0 / decimate=1 / interlaced=0 / constrained_intra=0 / bframes=3 / b_pyramid=2 / b_adapt=1 / b_bias=0 / direct=1 / weightb=1 / open_gop=0 / weightp=2 / keyint=250 / keyint_min=23 / scenecut=40 / intra_refresh=0 / rc_lookahead=40 / rc=2pass / mbtree=1 / bitrate=2088 / ratetol=1.0 / qcomp=0.60 / qpmin=0 / qpmax=51 / qpstep=4 / cplxblur=20.0 / qblur=0.5 / ip_ratio=1.40 / aq=1:1.00
Language : English
Default : No
Forced : No

Audio #1
ID : 2
Format : AC-3
Format/Info : Audio Coding 3
Codec ID : A_AC3
Duration : 1 h 46 min
Bit rate mode : Constant
Bit rate : 448 kb/s
Channel(s) : 6 channels
Channel positions : Front: L C R, Side: L R, LFE
Sampling rate : 48.0 kHz
Frame rate : 31.250 FPS (1536 SPF)
Bit depth : 16 bits
Compression mode : Lossy
Stream size : 342 MiB (14%)
Title : [UA-DUB]
Language : Ukrainian
Service kind : Complete Main
Default : Yes
Forced : Yes

Audio #2
ID : 3
Format : AC-3
Format/Info : Audio Coding 3
Codec ID : A_AC3
Duration : 1 h 46 min
Bit rate mode : Constant
Bit rate : 192 kb/s
Channel(s) : 2 channels
Channel positions : Front: L R
Sampling rate : 48.0 kHz
Frame rate : 31.250 FPS (1536 SPF)
Bit depth : 16 bits
Compression mode : Lossy
Stream size : 147 MiB (6%)
Title : [UA-MVO-2+2]
Language : Ukrainian
Service kind : Complete Main
Default : No
Forced : No

Audio #3
ID : 4
Format :
Format/Info : Advanced Audio Codec
Format profile : LC
Codec ID : A_AAC-2
Duration : 1 h 46 min
Bit rate : 256 kb/s
Channel(s) : 6 channels
Channel positions : Front: L C R, Side: L R, LFE
Sampling rate : 48.0 kHz
Frame rate : 46.875 FPS (1024 SPF)
Compression mode : Lossy
Stream size : 195 MiB (8%)
Title : Original
Language : English
Default : No
Forced : No

Audio #4
ID : 5
Format :
Format/Info : Advanced Audio Codec
Format profile : LC
Codec ID : A_AAC-2
Duration : 1 h 46 min
Bit rate : 128 kb/s
Channel(s) : 2 channels
Channel positions : Front: L R
Sampling rate : 48.0 kHz
Frame rate : 46.875 FPS (1024 SPF)
Compression mode : Lossy
Stream size : 97.9 MiB (4%)
Title : Commentary
Language : English
Default : No
Forced : No

Text #1
ID : 6
Format : UTF-8
Codec ID : S_TEXT/UTF8
Codec ID/Info : UTF-8 Plain Text
Duration : 1 h 37 min
Bit rate : 38 b/s
Count of elements : 748
Stream size : 27.6 KiB (0%)
Language : Ukrainian
Default : No
Forced : No

Text #2
ID : 7
Format : UTF-8
Codec ID : S_TEXT/UTF8
Codec ID/Info : UTF-8 Plain Text
Duration : 1 h 41 min
Bit rate : 28 b/s
Count of elements : 999
Stream size : 21.1 KiB (0%)
Language : English
Default : No
Forced : No

Menu
00:00:00.000 : :00:00:00.000
00:05:27.035 : :00:05:27.035
00:07:57.394 : :00:07:57.394
00:13:33.521 : :00:13:33.521
00:17:26.587 : :00:17:26.587
00:20:02.410 : :00:20:02.410
00:23:46.300 : :00:23:46.300
00:26:19.119 : :00:26:19.119
00:31:34.518 : :00:31:34.518
00:34:56.511 : :00:34:56.511
00:38:24.719 : :00:38:24.719
00:41:57.056 : :00:41:57.056
00:46:12.979 : :00:46:12.979
00:49:57.786 : :00:49:57.786
00:53:27.955 : :00:53:27.955
00:57:43.126 : :00:57:43.126
01:02:11.853 : :01:02:11.853
01:05:48.903 : :01:05:48.903
01:09:38.758 : :01:09:38.758
01:14:16.994 : :01:14:16.994
01:16:25.539 : :01:16:25.539
01:19:26.929 : :01:19:26.929
01:21:34.473 : :01:21:34.473
01:23:51.902 : :01:23:51.902
01:27:33.707 : :01:27:33.707
01:30:48.234 : :01:30:48.234
01:34:12.564 : :01:34:12.564
01:41:17.697 : :01:41:17.697
Скріншоти





Джерело: &
Особиста оцінка: 0 - не дивився
Хижаки / Predators (2010) AVC Ukr/Eng | Sub Ukr/Eng

Хижаки / Predators (2010) AVC Ukr/Eng | Sub Ukr/Eng


 Трекер:    Зареєстрований   

Завантажити / скачати фільм українською



відео для новачків



 Зареєстрований:   2018-09-26 17:43
 Розмір:   2.33 GB 
 Оцінка фільму:   9.9/10 (Голосів: 15)
   
Інші релізи
   Хижаки / Predators (2010) 720p 2xUkr/Eng | Sub Ukr/Eng staf777  4 / 0   4.85 GB   2018-09-26 21:38 
   Хижаки / Predators (2010) 2xUkr patriot2305  5 / 0   1.6 GB   2014-09-24 22:16 
   Хижаки / Predators (2010) 1080p Ukr/Eng | Sub Multi Ostafius  3 / 0   12.08 GB   2011-11-17 19:39 
   Хижаки / Predators (2010) DVD-9 Ukr/Rus Kuzmenko  1 / 0   5.25 GB   2010-09-26 15:06 
bot 
робот


З нами з: 30.09.07
Востаннє: 26.05.05
Повідомлень: 21365

2018-09-26 17:43  
Тему перенесено з Анонси релізів до форуму Фільми


staf777

gamajka 
Новенький


З нами з: 16.05.17
Востаннє: 11.05.19
Повідомлень: 10

2018-11-22 21:11  
Гарна картина , сподіваюсь на продовдення.
Ваш часовий пояс: GMT + 2 Години

Нова тема   Відповісти