Хижаки / Predators (2010) 720p 2xUkr/Eng | Sub Ukr/Eng

Нові коментарі

Нова тема   Відповісти
Автор Повідомлення
staf777 
Попереджень: 1
Попереджень: 1 


З нами з: 16.11.16
Востаннє: 19.10.18
Повідомлень: 1637

2018-09-26 16:59  
Хижаки / Predators (2010) 720p 2xUkr/Eng | Sub Ukr/Eng

Хижаки / Predators (2010) 720p 2xUkr/Eng | Sub Ukr/Eng


Жанр: бойовик, пригодницький, трилер, фантастика
Країна: США



Кінокомпанія: Davis Entertainment Troublemaker Studios Twentieth Century Fox Film Corporation
Режисер: Німрод Антал / Nimród Antal
Актори: Едріен Броуді / Adrien Brody, Лоуренс Фішберн / Laurence Fishburne, Денні Трехо / Danny Trejo, Тофер Ґрейс / Topher Grace, Еліс Браґа / Alice Braga, Волтон Ґоґінс / Walton Goggins та інші

Сюжет:
Початок "перезавантаження" відомої франшизи від продюсера Роберта Родріґеса.
Дія розгортається на планеті Хижаків. Тут людям не місце. Проте якщо ви туди потрапили, будьте готові пережити такий жах, про який ви ніколи й не чули...
Група запеклих головорізів зі всіх кінців світу на цей раз битиметься з Хижаками на їх рідній планеті.


Тривалість: 01:46:53
Якість: 720p
Відео:
кодек:
розмір кадру: 1280x544
бітрейт: 5210 кб/с

Аудіо # 1:
мова: українська
переклад: професійний дубльований
кодек: 5.1
бітрейт: 448 кб/с

Аудіо # 2:
мова: українська
переклад: багатоголосий закадровий
кодек: 2.0
бітрейт: 192 кб/с

Аудіо # 3:
мова: англійська
переклад: оригінал
кодек: 5.1
бітрейт: 640 кб/с

Субтитри:
мова: українська
тип: програмні (м'які)
формат: *.srt

Субтитри:
мова: англійська
тип: програмні (м'які)
формат: *.srt
Info
General
Unique ID : 41824205295020510290370430095641634513 (0x1F770C872FD6A6360C02FEFFE6DD66D1)
Complete name : G:\Майбутні релізи\Predators (2010) 720p [2xUKR_ENG] [Hurtom].
Format :
Format version : Version 4 / Version 2
File size : 4.85 GiB
Duration : 1 h 46 min
Overall bit rate : 6 491 kb/s
Movie name : Predators (2010) 720p [2xUKR_ENG] [Hurtom]
Encoded date : UTC 2018-09-26 14:52:06
Writing application : v24.0.0 ('Beyond The Pale') 64-bit
Writing library : libebml v1.3.6 + v1.4.9
Cover : Yes
Attachments : cover.png

Video
ID : 1
Format : AVC
Format/Info : Advanced Video Codec
Format profile : [email protected]
Format settings : CABAC / 12 Ref Frames
Format settings, CABAC : Yes
Format settings, ReFrames : 12 frames
Codec ID : V_MPEG4/ISO/AVC
Duration : 1 h 46 min
Bit rate : 5 210 kb/s
Width : 1 280 pixels
Height : 544 pixels
Display aspect ratio : 2.35:1
Frame rate mode : Constant
Frame rate : 23.976 FPS
Color space : YUV
Chroma subsampling : 4:2:0
Bit depth : 8 bits
Scan type : Progressive
Bits/(Pixel*Frame) : 0.312
Stream size : 3.89 GiB (80%)
Title : x264_L4.1 @ 5210 Kbps
Writing library : core 104 r1713 c276662
Encoding settings : cabac=1 / ref=12 / deblock=1:-3:-3 / analyse=0x3:0x113 / me=umh / subme=9 / psy=1 / psy_rd=0.90:0.00 / mixed_ref=1 / me_range=64 / chroma_me=1 / trellis=2 / 8x8dct=1 / cqm=0 / deadzone=21,11 / fast_pskip=0 / chroma_qp_offset=-4 / threads=12 / sliced_threads=0 / nr=0 / decimate=0 / interlaced=0 / constrained_intra=0 / bframes=6 / b_pyramid=2 / b_adapt=2 / b_bias=0 / direct=3 / weightb=1 / open_gop=0 / weightp=2 / keyint=250 / keyint_min=23 / scenecut=40 / intra_refresh=0 / rc=2pass / mbtree=0 / bitrate=5210 / ratetol=1.0 / qcomp=0.60 / qpmin=10 / qpmax=51 / qpstep=4 / cplxblur=20.0 / qblur=0.5 / ip_ratio=1.40 / pb_ratio=1.30 / aq=1:0.80
Language : English
Default : Yes
Forced : No

Audio #1
ID : 2
Format : AC-3
Format/Info : Audio Coding 3
Codec ID : A_AC3
Duration : 1 h 46 min
Bit rate mode : Constant
Bit rate : 448 kb/s
Channel(s) : 6 channels
Channel positions : Front: L C R, Side: L R, LFE
Sampling rate : 48.0 kHz
Frame rate : 31.250 FPS (1536 SPF)
Bit depth : 16 bits
Compression mode : Lossy
Stream size : 342 MiB (7%)
Title : [UA-DUB]
Language : Ukrainian
Service kind : Complete Main
Default : Yes
Forced : Yes

Audio #2
ID : 3
Format : AC-3
Format/Info : Audio Coding 3
Codec ID : A_AC3
Duration : 1 h 46 min
Bit rate mode : Constant
Bit rate : 192 kb/s
Channel(s) : 2 channels
Channel positions : Front: L R
Sampling rate : 48.0 kHz
Frame rate : 31.250 FPS (1536 SPF)
Bit depth : 16 bits
Compression mode : Lossy
Stream size : 147 MiB (3%)
Title : [UA-MVO-2+2]
Language : Ukrainian
Service kind : Complete Main
Default : No
Forced : No

Audio #3
ID : 4
Format : AC-3
Format/Info : Audio Coding 3
Codec ID : A_AC3
Duration : 1 h 46 min
Bit rate mode : Constant
Bit rate : 640 kb/s
Channel(s) : 6 channels
Channel positions : Front: L C R, Side: L R, LFE
Sampling rate : 48.0 kHz
Frame rate : 31.250 FPS (1536 SPF)
Bit depth : 16 bits
Compression mode : Lossy
Stream size : 489 MiB (10%)
Title : English Dolby Digital 5.1 @ 640 Kbps
Language : English
Service kind : Complete Main
Default : No
Forced : No

Text #1
ID : 5
Format : UTF-8
Codec ID : S_TEXT/UTF8
Codec ID/Info : UTF-8 Plain Text
Duration : 1 h 37 min
Bit rate : 38 b/s
Count of elements : 748
Stream size : 27.6 KiB (0%)
Language : Ukrainian
Default : No
Forced : No

Text #2
ID : 6
Format : UTF-8
Codec ID : S_TEXT/UTF8
Codec ID/Info : UTF-8 Plain Text
Duration : 1 h 45 min
Bit rate : 27 b/s
Count of elements : 1000
Stream size : 21.1 KiB (0%)
Title : English SDH
Language : English
Default : No
Forced : No

Menu
00:00:00.000 : en:00:00:00.000
00:05:27.035 : en:00:05:27.035
00:07:57.394 : en:00:07:57.394
00:13:33.521 : en:00:13:33.521
00:17:26.587 : en:00:17:26.587
00:20:02.410 : en:00:20:02.410
00:23:46.300 : en:00:23:46.300
00:26:19.119 : en:00:26:19.119
00:31:34.518 : en:00:31:34.518
00:34:56.511 : en:00:34:56.511
00:38:24.719 : en:00:38:24.719
00:41:57.056 : en:00:41:57.056
00:46:12.979 : en:00:46:12.979
00:49:57.786 : en:00:49:57.786
00:53:27.955 : en:00:53:27.955
00:57:43.126 : en:00:57:43.126
01:02:11.853 : en:01:02:11.853
01:05:48.903 : en:01:05:48.903
01:09:38.758 : en:01:09:38.758
01:14:16.994 : en:01:14:16.994
01:16:25.539 : en:01:16:25.539
01:19:26.929 : en:01:19:26.929
01:21:34.473 : en:01:21:34.473
01:23:51.902 : en:01:23:51.902
01:27:33.707 : en:01:27:33.707
01:30:48.234 : en:01:30:48.234
01:34:12.564 : en:01:34:12.564
01:41:17.697 : en:01:41:17.697





Джерело: &
Особиста оцінка: 0 - не дивився
Хижаки / Predators (2010) 720p 2xUkr/Eng | Sub Ukr/Eng

Хижаки / Predators (2010) 720p 2xUkr/Eng | Sub Ukr/Eng


 Трекер:    Зареєстрований   

Завантажити / скачати фільм українською



відео для новачків



 Зареєстрований:   2018-09-26 21:38
 Розмір:   4.85 GB 
 Оцінка фільму:   6.8/10 (Голосів: 5)
   
Інші релізи
   Хижаки / Predators (2010) AVC Ukr/Eng | Sub Ukr/Eng staf777  14 / 0   2.33 GB   2018-09-26 17:43 
   Хижаки / Predators (2010) 2xUkr patriot2305  6 / 1   1.6 GB   2014-09-24 22:16 
   Хижаки / Predators (2010) 1080p Ukr/Eng | Sub Multi Ostafius  2 / 0   12.08 GB   2011-11-17 19:39 
   Хижаки / Predators (2010) DVD-9 Ukr/Rus Kuzmenko  1 / 0   5.25 GB   2010-09-26 15:06 
bot 
робот


З нами з: 30.09.07
Востаннє: 26.05.05
Повідомлень: 19962

2018-09-26 17:59  
Тему перенесено з Фільми в HD до форуму Анонси релізів


staf777

bot 
робот


З нами з: 30.09.07
Востаннє: 26.05.05
Повідомлень: 19962

2018-09-26 21:38  
Тему перенесено з Анонси релізів до форуму Фільми в HD


staf777

Ваш часовий пояс: GMT + 2 Години

Нова тема   Відповісти