Попелюшка 3: Подорож у часі / Cinderella III: A Twist in Time (2007) 1080p Ukr/Eng | Sub Ukr/Eng

Нові коментарі

Нова тема   Відповісти
Автор Повідомлення
staf777 
Попереджень: 1
Попереджень: 1 


З нами з: 16.11.16
Востаннє: 14.11.18
Повідомлень: 1743

2018-09-26 10:17  
Попелюшка 3: Подорож у часі / Cinderella III: A Twist in Time (2007) 1080p Ukr/Eng | Sub Ukr/Eng

Попелюшка 3: Подорож у часі / Cinderella III: A Twist in Time (2007) 1080p Ukr/Eng | Sub Ukr/Eng


Жанр: анімація, сімейний
Країна: США



Кінокомпанія: Disneytoon Studios
Режисер: Френк Ніссен
Актори: Дженіфер Хейл, Крістофер Деніел Барнс, Сюзен Блейкслі, Тресс МекНілл, Андре Стойка, Рассі Тейлор, Холанд Тейлор.

Сюжет:
Зла мачуха промовляє заклинання, яке знищує все, що зробила Хрещена Фeя. Все, що вона створила (плаття, коні і карета), все за допомогою чого Попелюшка потрапила на бал — діє тепер на користь мачусі та її донькам. Тепер, коли чари зникли, чи буде у казки щасливий кінець?


Тривалість: 01:13:57
Якість: 1080p
Відео:
кодек:
розмір кадру: 1920x1080
бітрейт: 11,5 Мб/с

Аудіо # 1:
мова: українська
переклад: професійний дубльований LeDoyen Studio
кодек: 2.0
бітрейт: 192 кб/с

Аудіо # 2:
мова: англійська
переклад: оригінал
кодек: 5.1
бітрейт: 1509 кб/с

Субтитри # 1:
мова: українська
тип: пререндерні
формат: *.pgs

Субтитри # 2-3:
мова: англійська
тип: пререндерні
формат: *.pgs
Info
General
Unique ID : 302831391166596732759661390801215355228 (0xE3D33455D71F04FDB53417B2D322F95C)
Complete name : S:\Cinderella III A Twist in Time (2007) 1080p [UKR_ENG] [Hurtom].
Format :
Format version : Version 4 / Version 2
File size : 6.83 GiB
Duration : 1 h 13 min
Overall bit rate : 13.2 Mb/s
Movie name : Cinderella III: A Twist in Time (2007) 1080p [UKR_ENG] [Hurtom]
Encoded date : UTC 2018-09-26 07:51:31
Writing application : v24.0.0 ('Beyond The Pale') 64-bit
Writing library : libebml v1.3.6 + v1.4.9
Cover : Yes
Attachments : cover.jpg

Video
ID : 1
Format : AVC
Format/Info : Advanced Video Codec
Format profile : [email protected]
Format settings : CABAC / 4 Ref Frames
Format settings, CABAC : Yes
Format settings, ReFrames : 4 frames
Codec ID : V_MPEG4/ISO/AVC
Duration : 1 h 13 min
Bit rate : 11.5 Mb/s
Width : 1 920 pixels
Height : 1 080 pixels
Display aspect ratio : 16:9
Frame rate mode : Constant
Frame rate : 23.976 (24000/1001) FPS
Color space : YUV
Chroma subsampling : 4:2:0
Bit depth : 8 bits
Scan type : Progressive
Bits/(Pixel*Frame) : 0.231
Stream size : 5.94 GiB (87%)
Writing library : core 125 r2200 999b753
Encoding settings : cabac=1 / ref=4 / deblock=1:-3:-3 / analyse=0x3:0x113 / me=umh / subme=10 / psy=1 / psy_rd=1.00:0.00 / mixed_ref=1 / me_range=32 / chroma_me=1 / trellis=2 / 8x8dct=1 / cqm=0 / deadzone=21,11 / fast_pskip=1 / chroma_qp_offset=-2 / threads=4 / lookahead_threads=1 / sliced_threads=0 / nr=0 / decimate=1 / interlaced=0 / bluray_compat=0 / constrained_intra=0 / bframes=7 / b_pyramid=2 / b_adapt=1 / b_bias=0 / direct=3 / weightb=1 / open_gop=0 / weightp=2 / keyint=240 / keyint_min=23 / scenecut=40 / intra_refresh=0 / rc=2pass / mbtree=0 / bitrate=11499 / ratetol=1.0 / qcomp=0.60 / qpmin=0 / qpmax=69 / qpstep=4 / cplxblur=20.0 / qblur=0.5 / ip_ratio=1.40 / pb_ratio=1.30 / aq=1:0.80
Language : English
Default : Yes
Forced : No

Audio #1
ID : 2
Format : AC-3
Format/Info : Audio Coding 3
Codec ID : A_AC3
Duration : 1 h 13 min
Bit rate mode : Constant
Bit rate : 192 kb/s
Channel(s) : 2 channels
Channel positions : Front: L R
Sampling rate : 48.0 kHz
Frame rate : 31.250 FPS (1536 SPF)
Bit depth : 16 bits
Compression mode : Lossy
Stream size : 102 MiB (1%)
Title : LeDoyen
Language : Ukrainian
Service kind : Complete Main
Default : Yes
Forced : Yes

Audio #2
ID : 3
Format :
Format/Info : Digital Theater Systems
Codec ID : A_DTS
Duration : 1 h 13 min
Bit rate mode : Constant
Bit rate : 1 509 kb/s
Channel(s) : 6 channels
Channel positions : Front: L C R, Side: L R, LFE
Sampling rate : 48.0 kHz
Frame rate : 93.750 FPS (512 SPF)
Bit depth : 24 bits
Compression mode : Lossy
Stream size : 798 MiB (11%)
Language : English
Default : No
Forced : No

Text #1
ID : 4
Format : PGS
Muxing mode : zlib
Codec ID : S_HDMV/PGS
Codec ID/Info : Picture based subtitle format used on BDs/HD-DVDs
Duration : 1 h 4 min
Bit rate : 31.5 kb/s
Count of elements : 1674
Stream size : 14.6 MiB (0%)
Language : Ukrainian
Default : No
Forced : No

Text #2
ID : 5
Format : PGS
Muxing mode : zlib
Codec ID : S_HDMV/PGS
Codec ID/Info : Picture based subtitle format used on BDs/HD-DVDs
Duration : 1 h 8 min
Bit rate : 31.0 kb/s
Count of elements : 1764
Stream size : 15.2 MiB (0%)
Language : English
Default : No
Forced : No

Text #3
ID : 6
Format : PGS
Muxing mode : zlib
Codec ID : S_HDMV/PGS
Codec ID/Info : Picture based subtitle format used on BDs/HD-DVDs
Duration : 1 h 8 min
Bit rate : 38.0 kb/s
Count of elements : 2146
Stream size : 18.6 MiB (0%)
Language : English
Default : No
Forced : No

Menu
00:00:00.000 : :Chapter 01
00:04:17.507 : :Chapter 02
00:08:02.356 : :Chapter 03
00:13:46.242 : :Chapter 04
00:17:54.615 : :Chapter 05
00:20:58.090 : :Chapter 06
00:25:46.419 : :Chapter 07
00:28:21.658 : :Chapter 08
00:33:15.743 : :Chapter 09
00:36:43.159 : :Chapter 10
00:41:40.748 : :Chapter 11
00:46:00.716 : :Chapter 12
00:51:34.508 : :Chapter 13
00:54:52.872 : :Chapter 14
01:00:58.029 : :Chapter 15
01:05:21.918 : :Chapter 16
01:13:57.558 : :Chapter 17
Скріншоти







За доріжку подяка пану MutuLI
Джерело: &
Особиста оцінка: 8 - мені сподобалося
Попелюшка 3: Подорож у часі / Cinderella III: A Twist in Time (2007) 1080p Ukr/Eng | Sub Ukr/Eng

Попелюшка 3: Подорож у часі / Cinderella III: A Twist in Time (2007) 1080p Ukr/Eng | Sub Ukr/Eng


 Трекер:    Зареєстрований   

Завантажити / скачати мультфільм українською



відео для новачків



 Зареєстрований:   2018-09-26 10:17
 Розмір:   6.83 GB 
 Оцінка мультфільму:   10/10 (Голосів: 2)
   
Ваш часовий пояс: GMT + 2 Години

Нова тема   Відповісти