Попелюшка 2: Мрії здійснюються / Cinderella II: Dreams Come True (2002) 1080p Ukr/Eng | Sub Ukr/Eng

Нові коментарі

Нова тема   Відповісти
Автор Повідомлення
staf777 
Відео Гуртом - підтримка та поширення
Відео Гуртом - підтримка та поширення


З нами з: 16.11.16
Востаннє: 02.03.21
Повідомлень: 5067

2018-09-26 09:28  
Попелюшка 2: Мрії здійснюються / Cinderella II: Dreams Come True (2002) 1080p Ukr/Eng | Sub Ukr/Eng

Попелюшка 2: Мрії здійснюються / Cinderella II: Dreams Come True (2002) 1080p Ukr/Eng | Sub Ukr/Eng


Жанр: анімація, сімейний
Країна: США



Кінокомпанія: Disney Television Animation, Disneytoon Studios, Walt Disney Productions
Режисер: Джон Кафка
Актори: Дженіфер Хейл, Роб Паульсен, Корі Бартон, Андре Стойка, Рассі Тейлор, Сюзен Блейкслі, Тресс МекНілл, Холанд Тейлор.

Сюжет:
Всі знають, що казка про Попелюшку закінчилася тим, що вона вийшла заміж за прекрасного принца. Закінчилася? Ну, ні! Казка тільки починається! "Волт Дісней" запрошує дітей і дорослих в захопливу і веселу подорож по чарівному світу принцеси Попелюшки. Три абсолютно нові історії, яких не знайти в книгах: про перші дні Попелюшки в палаці, про мишеня Ґаса, який умовив Фею зробити його людиною, і про те, як примхлива сестра Попелюшки Анастасія навчилася посміхатися і любити ...


Тривалість: 01:13:27
Якість: 1080p
Відео:
кодек:
розмір кадру: 1830x1080
бітрейт: 6305 кб/с

Аудіо # 1:
мова: українська
переклад: професійний дубльований LeDoyen Studio
кодек: 2.0
бітрейт: 192 кб/с

Аудіо # 2:
мова: англійська
переклад: оригінал
кодек: 5.1
бітрейт: 1509 кб/с

Субтитри # 1:
мова: українська
тип: програмні (м'які)
формат: *.srt

Субтитри # 2:
мова: англійська
тип: програмні (м'які)
формат: *.srt
Info
General
Unique ID : 132728675661154683357001665498490294873 (0x63DA9CF3B18A1105DA61EFC11B375259)
Complete name : S:\Cinderella II Dreams Come True (2002) 1080p [UKR_ENG] [Hurtom].
Format :
Format version : Version 4 / Version 2
File size : 4.11 GiB
Duration : 1 h 13 min
Overall bit rate : 8 009 kb/s
Movie name : Cinderella II: Dreams Come True (2002) 1080p [UKR_ENG] [Hurtom]
Encoded date : UTC 2018-09-26 07:00:33
Writing application : v24.0.0 ('Beyond The Pale') 64-bit
Writing library : libebml v1.3.6 + v1.4.9
Cover : Yes
Attachments : cover.jpg

Video
ID : 1
Format : AVC
Format/Info : Advanced Video Codec
Format profile : [email protected]
Format settings : CABAC / 4 Ref Frames
Format settings, CABAC : Yes
Format settings, ReFrames : 4 frames
Codec ID : V_MPEG4/ISO/AVC
Duration : 1 h 13 min
Bit rate : 6 305 kb/s
Width : 1 830 pixels
Height : 1 080 pixels
Display aspect ratio : 5:3
Frame rate mode : Constant
Frame rate : 23.976 (24000/1001) FPS
Color space : YUV
Chroma subsampling : 4:2:0
Bit depth : 8 bits
Scan type : Progressive
Bits/(Pixel*Frame) : 0.133
Stream size : 3.24 GiB (79%)
Writing library : core 125 r2208kMod d9d2288
Encoding settings : cabac=1 / ref=4 / deblock=1:-2:-1 / analyse=0x3:0x133 / me=umh / subme=11 / psy=1 / fade_compensate=0.00 / psy_rd=0.60:0.00 / mixed_ref=1 / me_range=32 / chroma_me=1 / trellis=2 / 8x8dct=1 / cqm=0 / deadzone=21,11 / fast_pskip=0 / chroma_qp_offset=-2 / threads=6 / lookahead_threads=1 / sliced_threads=0 / nr=0 / decimate=1 / interlaced=0 / bluray_compat=0 / constrained_intra=0 / bframes=9 / b_pyramid=2 / b_adapt=2 / b_bias=0 / direct=1 / weightb=1 / open_gop=0 / weightp=2 / keyint=250 / keyint_min=23 / scenecut=40 / intra_refresh=0 / rc_lookahead=70 / rc=crf / mbtree=0 / crf=17.7300 / qcomp=0.80 / qpmin=0 / qpmax=69 / qpstep=4 / vbv_maxrate=50000 / vbv_bufsize=62500 / crf_max=0.0 / nal_hrd=none / ip_ratio=1.40 / pb_ratio=1.30 / aq=3:0.90
Language : English
Default : Yes
Forced : No
Color range : Limited
Color primaries : BT.709
Transfer characteristics : BT.709
Matrix coefficients : BT.709

Audio #1
ID : 2
Format : AC-3
Format/Info : Audio Coding 3
Codec ID : A_AC3
Duration : 1 h 13 min
Bit rate mode : Constant
Bit rate : 192 kb/s
Channel(s) : 2 channels
Channel positions : Front: L R
Sampling rate : 48.0 kHz
Frame rate : 31.250 FPS (1536 SPF)
Bit depth : 16 bits
Compression mode : Lossy
Stream size : 101 MiB (2%)
Title : LeDoyen Studio [ 2.0 стерео]
Language : Ukrainian
Service kind : Complete Main
Default : Yes
Forced : Yes

Audio #2
ID : 3
Format :
Format/Info : Digital Theater Systems
Codec ID : A_DTS
Duration : 1 h 13 min
Bit rate mode : Constant
Bit rate : 1 509 kb/s
Channel(s) : 6 channels
Channel positions : Front: L C R, Side: L R, LFE
Sampling rate : 48.0 kHz
Frame rate : 93.750 FPS (512 SPF)
Bit depth : 24 bits
Compression mode : Lossy
Stream size : 793 MiB (19%)
Title : / 5.1 / 48 kHz / 1509 kbps / 24-bit, Original
Language : English
Default : No
Forced : No

Text #1
ID : 4
Format : UTF-8
Codec ID : S_TEXT/UTF8
Codec ID/Info : UTF-8 Plain Text
Duration : 1 h 6 min
Bit rate : 85 b/s
Count of elements : 729
Stream size : 41.7 KiB (0%)
Title : SRT, Full
Language : Ukrainian
Default : No
Forced : No

Text #2
ID : 5
Format : UTF-8
Codec ID : S_TEXT/UTF8
Codec ID/Info : UTF-8 Plain Text
Duration : 1 h 6 min
Bit rate : 51 b/s
Count of elements : 725
Stream size : 25.3 KiB (0%)
Title : SRT, Full
Language : English
Default : No
Forced : No

Text #3
ID : 6
Format : UTF-8
Codec ID : S_TEXT/UTF8
Codec ID/Info : UTF-8 Plain Text
Duration : 1 h 10 min
Bit rate : 58 b/s
Count of elements : 919
Stream size : 30.2 KiB (0%)
Title : SRT, (SDH)
Language : English
Default : No
Forced : No
Скріншоти





За доріжку подяка пану MutuLI
Джерело: &
Особиста оцінка: 8 - мені сподобалося
Попелюшка 2: Мрії здійснюються / Cinderella II: Dreams Come True (2002) 1080p Ukr/Eng | Sub Ukr/Eng

Попелюшка 2: Мрії здійснюються / Cinderella II: Dreams Come True (2002) 1080p Ukr/Eng | Sub Ukr/Eng


Срібний реліз (на рейтинг впливає 50% завантаженого)
 Трекер:    Зареєстрований   

Завантажити / скачати мультфільм українською



відео для новачків



 Зареєстрований:   2018-09-26 09:28
 Розмір:   4.11 GB 
 Оцінка мультфільму:   10/10 (Голосів: 11)
   
arduani 
Новенький


З нами з: 29.09.18
Востаннє: 07.02.21
Повідомлень: 1

2019-12-18 21:52  
Дякую автору. Класно, що український контент. Ще раз дякую.
Ваш часовий пояс: GMT + 2 Години

Нова тема   Відповісти