Рекрут / The Recruit (2003) 1080p 3xUkr/Eng | Sub Eng

Нові коментарі

Нова тема   Відповісти
Автор Повідомлення
Anonymous 







2018-09-26 07:59  
Рекрут / The Recruit (2003) 1080p 3xUkr/Eng | Sub Eng

Рекрут / The Recruit (2003) 1080p 3xUkr/Eng | Sub Eng


Жанр: екшн, драма, кримінальний, детектив
Країна: США



Кінокомпанія: Touchstone Pictures
Режисер: Роджер Дональдсон
Актори: Аль Пачіно, Колін Фаррелл, Бріджет Мойнахан, Гебріел Махт, Кеннет Мітчел, Майк Рілба, Рон Ліа, Карл Прюнер, Джині Коледжа, Дженні Купер, Юджин Ліпінські

Сюжет:
Джеймс Клейтон привертає увагу вербувальника ЦРУ Волтера Берка своїм видатним інтелектом. Але щоб стати агентом екстра-класу, недостатньо мати видатні здібності. Джеймсу потрібно буде пройти найскладніший відбір у центрі підготовки під пильним оком ветеранів ЦРУ. Він виявляється крутіше всіх інших учнів, і на нього покладають особливі надії: у Ленглі завівся "кріт", і саме він має вичислити зрадника...


Тривалість: 01:55:01
Якість: 1080p
Відео:
кодек:
розмір кадру: 1920х820
бітрейт: 9918 кб/с

Аудіо # 1:
мова: українська
переклад: багатоголосий закадровий
кодек: 2.0
бітрейт: 192 кб/с

Аудіо # 2:
мова: українська
переклад: багатоголосий закадровий
кодек: 2.0
бітрейт: 192 кб/с

Аудіо # 3:
мова: українська
переклад: двоголосий закадровий
кодек: 2.0
бітрейт: 192 кб/с

Аудіо # 4:
мова: англійська
переклад: оригінал
кодек: 5.1
бітрейт: 640 кб/с

Субтитри:
мова: англійська
тип: програмні (м'які)
формат: *.srt
Info
General
Unique ID : 253173467443972866544504521989292496217 (0xBE776FAB4AEF7C49AF773BBBD2E71559)
Format :
Format version : Version 4 / Version 2
File size : 9.13 GiB
Duration : 1 h 55 min
Overall bit rate : 11.4 Mb/s
Encoded date : UTC 2018-09-26 05:49:38
Writing application : v6.1.0 ('Old Devil') built on Mar 4 2013 09:10:42
Writing library : libebml v1.3.0 + v1.4.0

Video
ID : 1
Format : AVC
Format/Info : Advanced Video Codec
Format profile : [email protected]
Format settings : CABAC / 5 Ref Frames
Format settings, CABAC : Yes
Format settings, ReFrames : 5 frames
Codec ID : V_MPEG4/ISO/AVC
Duration : 1 h 55 min
Bit rate : 9 918 kb/s
Width : 1 920 pixels
Height : 820 pixels
Display aspect ratio : 2.35:1
Frame rate mode : Constant
Frame rate : 23.976 (24000/1001) FPS
Color space : YUV
Chroma subsampling : 4:2:0
Bit depth : 8 bits
Scan type : Progressive
Bits/(Pixel*Frame) : 0.263
Stream size : 7.97 GiB (87%)
Writing library : core 140 r2377 1ca7bb9
Encoding settings : cabac=1 / ref=5 / deblock=1:-3:-3 / analyse=0x3:0x133 / me=umh / subme=11 / psy=1 / psy_rd=1.00:0.10 / mixed_ref=1 / me_range=32 / chroma_me=1 / trellis=2 / 8x8dct=1 / cqm=0 / deadzone=21,11 / fast_pskip=0 / chroma_qp_offset=-3 / threads=6 / lookahead_threads=1 / sliced_threads=0 / nr=0 / decimate=0 / interlaced=0 / bluray_compat=0 / constrained_intra=0 / bframes=8 / b_pyramid=2 / b_adapt=2 / b_bias=0 / direct=3 / weightb=1 / open_gop=0 / weightp=2 / keyint=240 / keyint_min=23 / scenecut=40 / intra_refresh=0 / rc=crf / mbtree=0 / crf=18.0 / qcomp=0.60 / qpmin=0 / qpmax=69 / qpstep=4 / ip_ratio=1.40 / pb_ratio=1.30 / aq=1:0.80
Language : English
Default : Yes
Forced : No

Audio #1
ID : 2
Format : AC-3
Format/Info : Audio Coding 3
Codec ID : A_AC3
Duration : 1 h 55 min
Bit rate mode : Constant
Bit rate : 192 kb/s
Channel(s) : 2 channels
Channel positions : Front: L R
Sampling rate : 48.0 kHz
Frame rate : 31.250 FPS (1536 SPF)
Bit depth : 16 bits
Compression mode : Lossy
Delay relative to video : 2 ms
Stream size : 158 MiB (2%)
Title : UKR (НЛО-TV)
Language : Ukrainian
Service kind : Complete Main
Default : Yes
Forced : Yes

Audio #2
ID : 3
Format : AC-3
Format/Info : Audio Coding 3
Codec ID : A_AC3
Duration : 1 h 55 min
Bit rate mode : Constant
Bit rate : 192 kb/s
Channel(s) : 2 channels
Channel positions : Front: L R
Sampling rate : 48.0 kHz
Frame rate : 31.250 FPS (1536 SPF)
Bit depth : 16 bits
Compression mode : Lossy
Delay relative to video : 2 ms
Stream size : 158 MiB (2%)
Title : UKR (НТН)
Language : Ukrainian
Service kind : Complete Main
Default : No
Forced : No

Audio #3
ID : 4
Format : AC-3
Format/Info : Audio Coding 3
Codec ID : A_AC3
Duration : 1 h 55 min
Bit rate mode : Constant
Bit rate : 192 kb/s
Channel(s) : 2 channels
Channel positions : Front: L R
Sampling rate : 48.0 kHz
Frame rate : 31.250 FPS (1536 SPF)
Bit depth : 16 bits
Compression mode : Lossy
Delay relative to video : 2 ms
Stream size : 158 MiB (2%)
Title : UKR (1+1)
Language : Ukrainian
Service kind : Complete Main
Default : No
Forced : No

Audio #4
ID : 5
Format : AC-3
Format/Info : Audio Coding 3
Codec ID : A_AC3
Duration : 1 h 55 min
Bit rate mode : Constant
Bit rate : 640 kb/s
Channel(s) : 6 channels
Channel positions : Front: L C R, Side: L R, LFE
Sampling rate : 48.0 kHz
Frame rate : 31.250 FPS (1536 SPF)
Bit depth : 16 bits
Compression mode : Lossy
Stream size : 526 MiB (6%)
Language : English
Service kind : Complete Main
Default : No
Forced : No

Text
ID : 6
Format : UTF-8
Codec ID : S_TEXT/UTF8
Codec ID/Info : UTF-8 Plain Text
Title : English
Language : English
Default : No
Forced : No

Menu
00:00:00.000 : en:Job Fair
00:02:41.327 : en:Cia Material
00:09:04.877 : en:The Interview
00:15:03.027 : en:The Farm
00:21:31.873 : en:Bug House
00:27:59.969 : en:Field Trip
00:36:17.508 : en:Choke Point
00:40:36.725 : en:The Noc
00:47:55.122 : en:Welcome to the Cia
00:56:18.875 : en:Contact
01:00:35.965 : en:Mail Delivery
01:09:15.401 : en:Breakfast
01:20:40.544 : en:Tracking Layla
01:27:52.517 : en:Coffee and Data
01:36:19.398 : en:Spartacus
01:45:11.388 : en:Spotlight
01:50:27.912 : en:End Credits
01:54:59.142 : en:The End
Скріншоти










За доріжки від НТН і 1+1 дякую невідомому герою, п. BILko, bodia87
За доріжку від НЛО дякую пану РОМЕО і п. Arsenfpu
Особиста подяка пану denixx за надану матеріальну допомогу на підтримку цього і майбутніх релізів.
Джерело:


Срібний реліз (на рейтинг впливає 50% завантаженого)
 Трекер:    Зареєстрований   

Завантажити / скачати фільм українською



відео для новачків



 Зареєстрований:   2018-09-26 07:59
 Розмір:   9.13 GB 
 Оцінка фільму:   10/10 (Голосів: 4)
   
Інші релізи
   Рекрут / The Recruit (2003) 1080p H.265 3xUkr/Eng | Sub Eng -Star-Lord-  4 / 0   2.77 GB   2018-11-16 23:09 
   Рекрут / The Recruit (2003) 3xUkr Arsenfpu  7 / 0   2.14 GB   2016-05-15 00:21 
   Рекрут / The Recruit (2003) AVC 2xUkr/Eng | Sub Eng Загора  1 / 0   2.99 GB   2016-04-20 13:02 
   Рекрут / The Recruit (2003) 720p 2xUkr/Eng | Sub Eng Загора  1 / 0   4.53 GB   2016-04-20 12:59 
Ваш часовий пояс: GMT + 2 Години

Нова тема   Відповісти