Поганий лейтенант / The Bad Lieutenant: Port of Call - New Orleans (2009) 720p Ukr/Eng | Sub Eng

Нові коментарі

Нова тема   Відповісти
Автор Повідомлення
Anonymous 







2018-09-26 07:19  
Поганий лейтенант / The Bad Lieutenant: Port of Call - New Orleans (2009) 720p Ukr/Eng | Sub Eng

Поганий лейтенант / The Bad Lieutenant: Port of Call - New Orleans (2009) 720p Ukr/Eng | Sub Eng
Альтернативний постер:

Жанр: кримінальний, драма
Країна: США



Кінокомпанія: Millennium Films, Edward R. Pressman Film, Saturn Films, Polsky Films, Osiris Productions, Lieutenant Productions, Nu Image Films
Режисер: Вернер Герцог (Werner Herzog)
Актори: Ніколас Кейдж (Nicolas Cage), Єва Мендес (Eva Mendes), Вел Кілмер (Val Kilmer), Дженніфер Кулідж (Jennifer Coolidge), Ексзібіт (Xzibit) та інші

Сюжет:
Лейтенант поліції Нью-Йорка, що страждає непереборною пристрастю до ставок на бейсбол, а також пристрастю до наркотиків і алкоголю, займається розслідуванням жорстокого зґвалтування черниці. Але розслідуванню справи дуже заважають пороки поліцейського, які стають його основним сенсом життя. Такі вади не можуть не призвести до трагедії.


Тривалість: 02:02:09
Якість: 720p
Відео:
кодек:
розмір кадру: 1280х692
бітрейт: 4482 кб/с

Аудіо # 1:
мова: українська
переклад: двоголосий закадровий
кодек: 2.0
бітрейт: 192 кб/с

Аудіо # 2:
мова: англійська
переклад: оригінал
кодек: 5.1
бітрейт: 640 кб/с

Субтитри:
мова: англійська
тип: програмні (м'які)
формат: *.srt
Info
General
Unique ID : 206060899509071170780716865417838520470 (0x9B05E2BB7A655EE8834183EC2FF6E896)
Format :
Format version : Version 4 / Version 2
File size : 4.54 GiB
Duration : 2 h 2 min
Overall bit rate : 5 315 kb/s
Encoded date : UTC 2018-09-26 05:12:22
Writing application : v6.1.0 ('Old Devil') built on Mar 4 2013 09:10:42
Writing library : libebml v1.3.0 + v1.4.0

Video
ID : 1
Format : AVC
Format/Info : Advanced Video Codec
Format profile : [email protected]
Format settings : CABAC / 8 Ref Frames
Format settings, CABAC : Yes
Format settings, ReFrames : 8 frames
Codec ID : V_MPEG4/ISO/AVC
Duration : 2 h 2 min
Bit rate : 4 482 kb/s
Width : 1 280 pixels
Height : 692 pixels
Display aspect ratio : 1.85:1
Frame rate mode : Constant
Frame rate : 23.976 FPS
Color space : YUV
Chroma subsampling : 4:2:0
Bit depth : 8 bits
Scan type : Progressive
Bits/(Pixel*Frame) : 0.211
Stream size : 3.73 GiB (82%)
Writing library : core 88 r1471 1144615
Encoding settings : cabac=1 / ref=8 / deblock=1:-3:-3 / analyse=0x3:0x113 / me=umh / subme=10 / psy=1 / psy_rd=1.00:0.00 / mixed_ref=1 / me_range=32 / chroma_me=1 / trellis=2 / 8x8dct=1 / cqm=0 / deadzone=21,11 / fast_pskip=0 / chroma_qp_offset=-2 / threads=6 / sliced_threads=0 / nr=0 / decimate=0 / mbaff=0 / constrained_intra=0 / bframes=10 / b_pyramid=2 / b_adapt=2 / b_bias=0 / direct=3 / wpredb=1 / wpredp=2 / keyint=250 / keyint_min=25 / scenecut=40 / intra_refresh=0 / rc=2pass / mbtree=0 / bitrate=4482 / ratetol=1.0 / qcomp=0.60 / qpmin=10 / qpmax=51 / qpstep=4 / cplxblur=20.0 / qblur=0.5 / ip_ratio=1.40 / pb_ratio=1.30 / aq=1:0.60
Language : English
Default : Yes
Forced : No

Audio #1
ID : 2
Format : AC-3
Format/Info : Audio Coding 3
Codec ID : A_AC3
Duration : 2 h 2 min
Bit rate mode : Constant
Bit rate : 192 kb/s
Channel(s) : 2 channels
Channel positions : Front: L R
Sampling rate : 48.0 kHz
Frame rate : 31.250 FPS (1536 SPF)
Bit depth : 16 bits
Compression mode : Lossy
Stream size : 168 MiB (4%)
Title : UKR (1+1)
Language : Ukrainian
Service kind : Complete Main
Default : Yes
Forced : Yes

Audio #2
ID : 3
Format : AC-3
Format/Info : Audio Coding 3
Codec ID : A_AC3
Duration : 2 h 2 min
Bit rate mode : Constant
Bit rate : 640 kb/s
Channel(s) : 6 channels
Channel positions : Front: L C R, Side: L R, LFE
Sampling rate : 48.0 kHz
Frame rate : 31.250 FPS (1536 SPF)
Bit depth : 16 bits
Compression mode : Lossy
Stream size : 559 MiB (12%)
Title : ENG
Language : English
Service kind : Complete Main
Default : No
Forced : No

Text
ID : 4
Format : UTF-8
Codec ID : S_TEXT/UTF8
Codec ID/Info : UTF-8 Plain Text
Title : ENG
Language : English
Default : No
Forced : No

Menu
00:00:00.000 : en:00:00:00.000
00:06:09.035 : en:00:06:09.035
00:17:00.186 : en:00:17:00.186
00:26:41.767 : en:00:26:41.767
00:36:14.589 : en:00:36:14.589
00:48:36.622 : en:00:48:36.622
00:59:06.168 : en:00:59:06.168
01:10:43.364 : en:01:10:43.364
01:22:19.518 : en:01:22:19.518
01:32:07.564 : en:01:32:07.564
01:44:29.388 : en:01:44:29.388
01:50:25.202 : en:01:50:25.202
01:56:47.375 : en:01:56:47.375
Скріншоти








За українську доріжку подяка п.: MAKAPOHHIK, Zetonik-z
За постери подяка п. hellforces
Особиста подяка пану denixx за надану матеріальну допомогу на підтримку цього і майбутніх релізів.
Джерело:


 Трекер:    Зареєстрований   

Завантажити / скачати фільм українською



відео для новачків



 Зареєстрований:   2018-09-26 07:19
 Розмір:   4.54 GB 
 Оцінка фільму:   9.3/10 (Голосів: 3)
   
Ваш часовий пояс: GMT + 2 Години

Нова тема   Відповісти