Останній шанс побачити (Сезон 1) / BBC. Last Chance to See (Season 1) (2009) 1080p Ukr/Eng | Sub Eng

Нові коментарі

Нова тема   Відповісти
Автор Повідомлення
DareDevil96 
Відео Гуртом - запис з ТБ
Відео Гуртом - запис з ТБ


З нами з: 23.07.10
Востаннє: 14.02.19
Повідомлень: 610

2018-09-25 20:55  
Останній шанс побачити (Сезон 1) / BBC. Last Chance to See (Season 1) (2009) 1080p Ukr/Eng | Sub Eng






Жанр: документальний, тварини, природа, подорожі
Країна: Велика Британія

Телеканал / кіностудія: BBC, Da Vinci Learning


Сюжет:
Через двадцять років після того, як Дуглас Адамс та Марк Карвардін подорожували по світу в пошуках тварни під загрозою вимирання, Стівен Фрай приєднується до до свого друга Марка, щоб поглянути як себе почувають особи, які живуть на межі виживання.
Епізод 1: Амазонський ламантин
Епізод 2: Північний білий носоріг
Епізод 3: Ай-Ай
Епізод 4: Комодський дракон
Епізод 5: Какапо
Епізод 6: Синій кит


Тривалість: 59:00 х6

Якість: 1080p
Відео:
кодек: MPEG4
розмір кадру: 1440х810 (16:9)
частота кадрів: 25.000 кадр/сек
бітрейт: 5000 кб/с

Аудіо:
мова: українська
переклад: багатоголосий закадровий
кодек: 2.0
бітрейт: 192 кб/с (6 кГц!)

Аудіо # 2:
мова: англійська
переклад: оригінал
кодек: 2.0
бітрейт: 192 кб/с

Субтитри:
мова: англійська
тип: програмні (м'які)
формат: *.srt
Звіт Info:
Format :
Format version : Version 4 / Version 2
File size : 2.22 GiB
Duration : 59 min 6 s
Overall bit rate : 5 384 kb/s
Encoded date : UTC 2018-09-22 10:49:11
Writing application : v26.0.0 ('In The Game') 64-bit
Writing library : libebml v1.3.6 + v1.4.9

Video
ID : 1
Format : AVC
Format/Info : Advanced Video Codec
Format profile : [email protected]
Format settings : CABAC / 6 Ref Frames
Format settings, CABAC : Yes
Format settings, ReFrames : 6 frames
Codec ID : V_MPEG4/ISO/AVC
Duration : 59 min 6 s
Bit rate : 5 000 kb/s
Width : 1 440 pixels
Height : 810 pixels
Display aspect ratio : 16:9
Frame rate mode : Constant
Frame rate : 25.000 FPS
Color space : YUV
Chroma subsampling : 4:2:0
Bit depth : 8 bits
Scan type : Progressive
Bits/(Pixel*Frame) : 0.171
Stream size : 2.06 GiB (93%)
Writing library : core 116 r2057 0ba8a9c
Encoding settings : cabac=1 / ref=6 / deblock=1:0:0 / analyse=0x3:0x113 / me=umh / subme=9 / psy=1 / psy_rd=1.00:0.00 / mixed_ref=1 / me_range=24 / chroma_me=1 / trellis=1 / 8x8dct=1 / cqm=0 / deadzone=21,11 / fast_pskip=0 / chroma_qp_offset=-2 / threads=3 / sliced_threads=0 / nr=0 / decimate=1 / interlaced=0 / bluray_compat=0 / constrained_intra=0 / bframes=3 / b_pyramid=2 / b_adapt=1 / b_bias=0 / direct=1 / weightb=1 / open_gop=0 / weightp=2 / keyint=125 / keyint_min=25 / scenecut=40 / intra_refresh=0 / rc_lookahead=40 / rc=2pass / mbtree=1 / bitrate=5000 / ratetol=1.0 / qcomp=0.60 / qpmin=0 / qpmax=69 / qpstep=4 / cplxblur=20.0 / qblur=0.5 / ip_ratio=1.40 / aq=1:1.00
Language : English
Default : Yes
Forced : No

Audio #1
ID : 2
Format : AC-3
Format/Info : Audio Coding 3
Commercial name : Dolby Digital
Codec ID : A_AC3
Duration : 59 min 6 s
Bit rate mode : Constant
Bit rate : 192 kb/s
Channel(s) : 2 channels
Channel layout : L R
Sampling rate : 48.0 kHz
Frame rate : 31.250 FPS (1536 SPF)
Bit depth : 16 bits
Compression mode : Lossy
Stream size : 81.2 MiB (4%)
Title : ZAKADR-[Ukr.DaVinciLearning]
Language : Ukrainian
Service kind : Complete Main
Default : No
Forced : No

Audio #2
ID : 3
Format : AC-3
Format/Info : Audio Coding 3
Commercial name : Dolby Digital
Codec ID : A_AC3
Duration : 59 min 6 s
Bit rate mode : Constant
Bit rate : 192 kb/s
Channel(s) : 2 channels
Channel layout : L R
Sampling rate : 48.0 kHz
Frame rate : 31.250 FPS (1536 SPF)
Bit depth : 16 bits
Compression mode : Lossy
Stream size : 81.2 MiB (4%)
Language : English
Service kind : Complete Main
Default : Yes
Forced : No

Text
ID : 4
Format : UTF-8
Codec ID : S_TEXT/UTF8
Codec ID/Info : UTF-8 Plain Text
Duration : 58 min 38 s
Bit rate : 90 b/s
Count of elements : 779
Stream size : 38.7 KiB (0%)
Language : English
Default : No
Forced : No



Джерело озвучення:
Da Vinci Learning


Скріншоти

Джерело: DareDevil96 спеціально для
Ріп: MVGroup.org by JungleBoy
Особиста оцінка: 8 - справді цікаво


P.S. При нагоді, залишайтесь на роздачі релізів, дякую. Записів ще дуже багато, а місця на усе фізично не вистачає...


Бронзовий реліз (на рейтинг впливає 75% завантаженого)
 Трекер:    Зареєстрований   

Завантажити / скачати фільм українською



відео для новачків



 Зареєстрований:   2018-09-25 20:55
 Розмір:   13.34 GB 
 Оцінка фільму:   10/10 (Голосів: 4)
 Останній шанс побачити (Сезон 1) / BBC. Last Chance to See (Season 1) (2009) BDRip 1440p Ukr/Eng | Sub Eng
   
DareDevil96 
Відео Гуртом - запис з ТБ
Відео Гуртом - запис з ТБ


З нами з: 23.07.10
Востаннє: 14.02.19
Повідомлень: 610

2018-09-25 21:00  
Хороша озвучка Да Вінчі, якісна та легко сприймається, але якість запису тільки в 6 кГц( Тому на слух таке враження, ніби слабеньке моно + та ще й декілька раз перекодоване...
Існує інша озвучка цієї документалки від студії КІТ, яка транслювалась, як мінімум декілька раз на каналі Київ та UA Першому. Якщо хтось записав, то можна було б додати. Там якість озвучки можливо трішки нижча, так би мовити, простіше виконана. Але саме якість записаної доріжки була б кращою як мінімум вдвічі.

bot 
робот


З нами з: 30.09.07
Востаннє: 26.05.05
Повідомлень: 20700

2018-09-25 21:05  
Тему перенесено з BBC до форуму Документальні фільми в HD


DareDevil96

Ваш часовий пояс: GMT + 2 Години

Нова тема   Відповісти