Марк + Наталка (Сезон 1, 32 серії з ) (2018) AVC

Нові коментарі

Нова тема   Відповісти
Останній раз роздавалося jeckson-2 (2020-10-17)
Автор Повідомлення
sergiyko.5 
Забанено
Забанено


З нами з: 25.02.16
Востаннє: 29.10.20
Повідомлень: 3650

2018-09-25 20:00  
Марк + Наталка (Сезон 1) (2018) AVC


Марк + Наталка (Сезон 1, 32 серії з ) (2018) AVC

Жанр: комедія, ситком
Країна: Україна
Кінокомпанія: ICTV
Режисер: Гарік Бірча
Актори: Марк Дробот, Наталка Кобізька.

Сюжет:
Марк і Наталка живуть разом, кохають одне одного й намагаються розібратися з проблемами, що виникають ледь не на кожному кроці. Ревнощі, непорозуміння, пошук компромісів, сімейні радощі, проблеми батьків та дітей саме з цим кожен день стикаються головні персонажі. Марк та Наталка — це наші сучасники, які просто опинилися по той бік екрану, але залишилися такими ж звичайними і зрозумілими кожному українцю.


Тривалість: 1 серія: 23:55 (цілком серій: 32)
Якість:

Відео: кодек: розмір кадру: 720 х 408 бітрейт: 1200 кб/с
Аудіо: мова: українська переклад: оригінал кодек: MP2 бітрейт: 128 кб/с
Перелік серій
01-32
Про файл:
General
Unique ID : 219269645996019266486618859067495035609 (0xA4F5CC36D8B8BFB8A5C557B2F12A32D9)
Complete name : E:\coding\mark.01.
Format :
Format version : Version 2
File size : 228 MiB
Duration : 23 min 55 s
Overall bit rate : 1 335 kb/s
Encoded date : UTC 2018-09-25 17:38:33
Writing application : v7.8.0 ('River Man') 32bit built on Apr 3 2015 12:11:22
Writing library : libebml v1.3.1 + v1.4.2

Video
ID : 1
Format : AVC
Format/Info : Advanced Video Codec
Format profile : [email protected]
Format settings : CABAC / 12 Ref Frames
Format settings, CABAC : Yes
Format settings, ReFrames : 12 frames
Codec ID : V_MPEG4/ISO/AVC
Duration : 23 min 55 s
Bit rate : 1 180 kb/s
Width : 720 pixels
Height : 408 pixels
Display aspect ratio : 16:9
Frame rate mode : Constant
Frame rate : 25.000 FPS
Color space : YUV
Chroma subsampling : 4:2:0
Bit depth : 8 bits
Scan type : Progressive
Bits/(Pixel*Frame) : 0.161
Stream size : 202 MiB (88%)
Writing library : core 146 r2538 121396c
Encoding settings : cabac=1 / ref=12 / deblock=1:-1:-1 / analyse=0x3:0x133 / me=umh / subme=9 / psy=1 / psy_rd=1.00:0.15 / mixed_ref=1 / me_range=24 / chroma_me=1 / trellis=2 / 8x8dct=1 / cqm=0 / deadzone=21,11 / fast_pskip=1 / chroma_qp_offset=-3 / threads=16 / lookahead_threads=2 / sliced_threads=0 / nr=0 / decimate=1 / interlaced=0 / bluray_compat=0 / constrained_intra=0 / bframes=8 / b_pyramid=2 / b_adapt=2 / b_bias=0 / direct=1 / weightb=1 / open_gop=0 / weightp=2 / keyint=250 / keyint_min=25 / scenecut=40 / intra_refresh=0 / rc_lookahead=60 / rc=crf / mbtree=1 / crf=19.0 / qcomp=0.60 / qpmin=0 / qpmax=69 / qpstep=4 / ip_ratio=1.40 / aq=1:1.00
Default : Yes
Forced : No

Audio
ID : 2
Format : MPEG Audio
Format version : Version 1
Format profile : Layer 2
Codec ID : A_MPEG/L2
Codec ID/Hint : MP2
Duration : 23 min 55 s
Bit rate mode : Constant
Bit rate : 128 kb/s
Channel(s) : 2 channels
Sampling rate : 48.0 kHz
Compression mode : Lossy
Stream size : 21.9 MiB (10%)
Default : Yes
Forced : No
Скріншоти:


Золотий реліз (завантажене не впливає на рейтинг)
 Трекер:    Зареєстрований   

Завантажити / скачати український серіал



відео для новачків



 Зареєстрований:   2018-10-20 12:18
 Розмір:   6.86 GB 
 Оцінка серіалу:   8.1/10 (Голосів: 7)
   
[email protected] 
Новенький


З нами з: 11.01.14
Востаннє: 17.11.20
Повідомлень: 2

2018-09-25 20:48  
Це тіпа Леся + Рома, я так розумію ті герої незахотіли зніматись ?
leicheman 
Відео Гуртом - фільмокрай
Відео Гуртом - фільмокрай


З нами з: 03.07.14
Востаннє: 25.11.20
Повідомлень: 5681

2018-09-25 21:02  
[email protected]
Ті актори на молоду пару аж ніяк вже не тягнуть тому і нові

380990387745 
Новенький


З нами з: 13.10.13
Востаннє: 24.11.20
Повідомлень: 15

2018-09-26 02:52  
ТА й навіщо треба було робити кастинги, як в загалі взяли тих акторів яких вже всі добре знають, треба було нових, свіжих акторів
sergiyko.5 
Забанено
Забанено


З нами з: 25.02.16
Востаннє: 29.10.20
Повідомлень: 3650

2018-09-29 21:08  
Додав 7-8 серії.
bogdan8249 
Відео Гуртом - фільмокрай
Відео Гуртом - фільмокрай


З нами з: 09.08.08
Востаннє: 25.11.20
Повідомлень: 1235

2018-09-29 22:12  
leicheman написано:
Ті актори на молоду пару аж ніяк вже не тягнуть тому і нові

Що, так сильно вже постаріли?

leicheman 
Відео Гуртом - фільмокрай
Відео Гуртом - фільмокрай


З нами з: 03.07.14
Востаннє: 25.11.20
Повідомлень: 5681

2018-09-30 07:51  
bogdan8249
Та не сильно аж так , но точно не формат серіалу..
Лесі -43 , а Ромі -52.

zgryvus 
Відео Гуртом - дизайнер
Відео Гуртом - дизайнер


З нами з: 21.08.09
Востаннє: 25.11.20
Повідомлень: 1502

2018-09-30 20:21  
[email protected] написано:
Це тіпа Леся + Рома, я так розумію

Отак і я хотів написати, але як виявилося не єдиний Wide grin Wide grin

jaral 
Забанено
Забанено


З нами з: 18.10.07
Востаннє: 21.01.20
Повідомлень: 977

2018-10-01 18:35  
sergiyko.5 написано:
мова: українська
Не зовсім, місцями сурогат, або київський суржик!
zevsisver 
Новенький


З нами з: 21.06.09
Востаннє: 25.11.20
Повідомлень: 19

2018-10-02 00:17  
подивився.... оригінал кращий...
чи то я вже постарів....

p.s. реклама розетки тупенька якась Sad (1)
і не в контексті і повторюється....
от би її повирізати....

sergiyko.5 
Забанено
Забанено


З нами з: 25.02.16
Востаннє: 29.10.20
Повідомлень: 3650

2018-10-20 12:18  
Додав нові серії.
bogdan8249 
Відео Гуртом - фільмокрай
Відео Гуртом - фільмокрай


З нами з: 09.08.08
Востаннє: 25.11.20
Повідомлень: 1235

2018-10-20 20:14  
А "Трясця, твоїй матері" тут грає Тамара Яценко?
Jack_Daniels 
VIP


З нами з: 30.07.10
Востаннє: 21.11.20
Повідомлень: 334

2018-10-21 12:21  
Марк... Оригінальне українське ім'я.... :-D
Ваш часовий пояс: GMT + 2 Години

Нова тема   Відповісти