Моя супер-колишня / My Super Ex-Girlfriend (2006) 1080p H.265 Ukr/Eng | Sub Eng

Нові коментарі

Нова тема   Відповісти
Автор Повідомлення
-Star-Lord- 
Поважний учасник


З нами з: 09.08.18
Востаннє: 19.10.18
Повідомлень: 209

2018-09-25 12:27  
Моя супер-колишня / My Super Ex-Girlfriend (2006) 1080p H.265 Ukr/Eng | Sub Eng

Моя супер-колишня / My Super Ex-Girlfriend (2006) 1080p H.265 Ukr/Eng | Sub Eng


Жанр: фантастика, трилер, драма, мелодрама, комедія, кримінал
Країна: США



Кінокомпанія: 1. New Regency Pictures 2. Pariah 3. Regency Enterprises 4. S E Productions Inc.
Режисер: Айвен Райтман
Актори: Ума Турман, Люк Уілсон, Анна Феріс, Рейн Уілсон, Эдді Іззард, Стеліо Саванте, Майк Іоріо, Марк Консуелос, Ванда Сайкес, Маргарет Енн Флоренс...

Сюжет:
Розлучатися завжди важко, але іноді це ще і неймовірно небезпечно. Зустрівши красуню Джені Джонсон, Метт Сондерс думає, що він нарешті знайшов жінку своєї мрії. Однак, переконавшись у тому, що вона справжній супермен в спідниці, Метт вирішує з нею розлучитися, тим паче що Джені стає занадто нав'язливою і вимогливою.

Але виявилося, що порвати з жінкою-суперменом не так-то легко. Відчуваючи себе приниженою і ображеною, Джені використовує всі свої надприродні здібності, щоб не тільки покласти край роману Метта з його товаришкою по службі Ханною, але і перетворити життя свого «екс» в суще пекло ...


Тривалість: 01:36:33
Якість:
Відео:
кодек: H.265 (HEVC)
розмір кадру: 1920 х 800
бітрейт: 4 883 кб/с
бітова глибина: 10 біт
Увага! Перед завантаженням переконайтесь, що ваш пристрій відтворення (та/або ПЗ) підтримує H.265 (HEVC)

Аудіо # 1: , ,
мова: українська
переклад: багатоголосий закадровий
кодек: 2.0
бітрейт: 192 кб/с

Аудіо # 2:
мова: англійська
переклад: оригінал
кодек: 5.1
бітрейт: 384 кб/с

Субтитри:
мова: англійська
тип: програмні (м'які)
формат: *.VobSub


Info
Код:
General
Unique ID                                : 86201931256436568771212460082982989391 (0x40D9E3585D312EFA595D0427E852AE4F)
Complete name                            : F:\Video\My Super Ex-Girlfriend (2006) 1080p H.265 [UKR_ENG].
Format                                   :
Format version                           : Version 4 / Version 2
File size                                : 3.69 GiB
Duration                                 : 1 h 36 min
Overall bit rate                         : 5 468 kb/s
Movie name                               : My Super Ex-Girlfriend (2006)
Encoded date                             : UTC 2018-09-24 09:12:17
Writing application                      : v20.0.0 ('I Am The Sun') 32-bit
Writing library                          : libebml v1.3.5 + v1.4.8
Cover                                    : Yes
Attachments                              : cover.jpg

Video
ID                                       : 1
Format                                   : HEVC
Format/Info                              : High Efficiency Video Coding
Format profile                           : Main [email protected]@Main
Codec ID                                 : V_MPEGH/ISO/HEVC
Duration                                 : 1 h 36 min
Bit rate                                 : 4 883 kb/s
Width                                    : 1 920 pixels
Height                                   : 800 pixels
Display aspect ratio                     : 2.40:1
Frame rate mode                          : Constant
Frame rate                               : 23.976 (24000/1001) FPS
Color space                              : YUV
Chroma subsampling                       : 4:2:0
Bit depth                                : 10 bits
Bits/(Pixel*Frame)                       : 0.133
Stream size                              : 3.29 GiB (89%)
Writing library                          : x265 2.8+40-0106f9f2f867:[Windows][GCC 7.3.0][64 bit] 10bit
Encoding settings                        : cpuid=1111039 / frame-threads=3 / numa-pools=8 / wpp / no-pmode / no-pme / no-psnr / no-ssim / log-level=2 / input-csp=1 / input-res=1920x800 / interlace=0 / total-frames=138912 / level-idc=0 / high-tier=1 / uhd-bd=0 / ref=4 / no-allow-non-conformance / no-repeat-headers / annexb / no-aud / no-hrd / info / hash=0 / no-temporal-layers / open-gop / min-keyint=23 / keyint=250 / gop-lookahead=0 / bframes=4 / b-adapt=2 / b-pyramid / bframe-bias=0 / rc-lookahead=25 / lookahead-slices=4 / scenecut=40 / radl=0 / no-intra-refresh / ctu=64 / min-cu-size=8 / rect / no-amp / max-tu-size=32 / tu-inter-depth=1 / tu-intra-depth=1 / limit-tu=0 / rdoq-level=2 / dynamic-rd=0.00 / no-ssim-rd / signhide / no-tskip / nr-intra=0 / nr-inter=0 / no-constrained-intra / strong-intra-smoothing / max-merge=3 / limit-refs=3 / limit-modes / me=3 / subme=3 / merange=57 / temporal-mvp / weightp / no-weightb / no-analyze-src-pics / deblock=0:0 / sao / no-sao-non-deblock / rd=4 / no-early-skip / rskip / no-fast-intra / no-tskip-fast / no-cu-lossless / no-b-intra / no-splitrd-skip / rdpenalty=0 / psy-rd=2.00 / psy-rdoq=1.00 / no-rd-refine / no-lossless / cbqpoffs=0 / crqpoffs=0 / rc=abr / bitrate=4884 / qcomp=0.60 / qpstep=4 / stats-write=0 / stats-read=2 / cplxblur=20.0 / qblur=0.5 / ipratio=1.40 / pbratio=1.30 / aq-mode=3 / aq-strength=1.00 / cutree / zone-count=0 / no-strict-cbr / qg-size=32 / no-rc-grain / qpmax=69 / qpmin=0 / no-const-vbv / sar=0 / overscan=0 / videoformat=5 / range=0 / colorprim=2 / transfer=2 / colormatrix=2 / chromaloc=0 / display-window=0 / max-cll=0,0 / min-luma=0 / max-luma=1023 / log2-max-poc-lsb=8 / vui-timing-info / vui-hrd-info / slices=1 / no-opt-qp-pps / no-opt-ref-list-length-pps / multi-pass-opt-rps / scenecut-bias=0.05 / no-opt-cu-delta-qp / aq-motion / no-hdr / no-hdr-opt / no-dhdr10-opt / no-idr-recovery-sei / analysis-reuse-level=5 / scale-factor=0 / refine-intra=0 / refine-inter=0 / refine-mv=0 / no-limit-sao / ctu-info=0 / no-lowpass-dct / refine-mv-type=0 / copy-pic=1 / max-ausize-factor=1.0 / no-dynamic-refine / no-single-sei
Default                                  : Yes
Forced                                   : No

Audio #1
ID                                       : 2
Format                                   : AC-3
Format/Info                              : Audio Coding 3
Codec ID                                 : A_AC3
Duration                                 : 1 h 36 min
Bit rate mode                            : Constant
Bit rate                                 : 192 kb/s
Channel(s)                               : 2 channels
Channel positions                        : Front: L R
Sampling rate                            : 48.0 kHz
Frame rate                               : 31.250 FPS (1536 SPF)
Bit depth                                : 16 bits
Compression mode                         : Lossy
Stream size                              : 133 MiB (4%)
Title                                    : Novy Kanal
Language                                 : Ukrainian
Service kind                             : Complete Main
Default                                  : Yes
Forced                                   : No

Audio #2
ID                                       : 3
Format                                   : AC-3
Format/Info                              : Audio Coding 3
Codec ID                                 : A_AC3
Duration                                 : 1 h 36 min
Bit rate mode                            : Constant
Bit rate                                 : 384 kb/s
Channel(s)                               : 6 channels
Channel positions                        : Front: L C R, Side: L R, LFE
Sampling rate                            : 48.0 kHz
Frame rate                               : 31.250 FPS (1536 SPF)
Bit depth                                : 16 bits
Compression mode                         : Lossy
Stream size                              : 265 MiB (7%)
Title                                    : Original
Language                                 : English
Service kind                             : Complete Main
Default                                  : No
Forced                                   : No

Text
ID                                       : 4
Format                                   : VobSub
Muxing mode                              : zlib
Codec ID                                 : S_VOBSUB
Codec ID/Info                            : Picture based subtitle format used on DVDs
Duration                                 : 1 h 34 min
Bit rate                                 : 10.9 kb/s
Count of elements                        : 1222
Stream size                              : 7.31 MiB (0%)
Language                                 : English
Default                                  : No
Forced                                   : No

Menu
00:00:00.000                             : en:Chapter 01
00:02:50.545                             : en:Chapter 02
00:06:53.204                             : en:Chapter 03
00:09:29.402                             : en:Chapter 04
00:13:47.409                             : en:Chapter 05
00:16:28.028                             : en:Chapter 06
00:23:28.573                             : en:Chapter 07
00:26:15.240                             : en:Chapter 08
00:31:21.546                             : en:Chapter 09
00:39:01.881                             : en:Chapter 10
00:41:54.303                             : en:Chapter 11
00:48:59.353                             : en:Chapter 12
00:53:50.018                             : en:Chapter 13
01:00:23.578                             : en:Chapter 14
01:05:23.586                             : en:Chapter 15
01:10:29.058                             : en:Chapter 16
01:14:58.494                             : en:Chapter 17
01:20:25.779                             : en:Chapter 18
01:28:33.516                             : en:Chapter 19
01:30:10.780                             : en:Chapter 20
Скріншоти




Джерело:
Особиста оцінка: 0 - не дивився


 Трекер:    Зареєстрований   

Завантажити / скачати фільм українською



відео для новачків



 Зареєстрований:   2018-09-25 12:27
 Розмір:   3.69 GB 
 Оцінка фільму:   8.6/10 (Голосів: 5)
   
Інші релізи
0mage0 
VIP


З нами з: 06.10.15
Востаннє: 19.10.18
Повідомлень: 368

2018-10-03 08:02  
Смішний фільм, рекомендую.
Ваш часовий пояс: GMT + 2 Години

Нова тема   Відповісти