Хакери / Hackers [Remastered] (1995) 1080p H.265 3xUkr/Eng | Sub Eng

Нові коментарі

Нова тема   Відповісти
Автор Повідомлення
-Star-Lord- 
Поважний учасник


З нами з: 09.08.18
Востаннє: 17.10.18
Повідомлень: 197

2018-09-25 12:12  
Хакери / Hackers [Remastered] (1995) 1080p H.265 3xUkr/Eng | Sub Eng

Хакери / Hackers [Remastered] (1995) 1080p H.265 3xUkr/Eng | Sub Eng


Жанр: комедія, кримінальний, драма, трилер
Країна: США



Кінокомпанія: United Artists, Suftley
Режисер: Айєн Софтлі
Актори: Джонні Лі Міллер, Анджеліна Джолі, Джессі Бретфорд, Метью Ліллард, Лоуренс Мейсон, Ренолі Сантьяґо, Фішер Стівенс, Альберта Вотсон

Сюжет:
В 1988 році в Сієтлі батьки одинадцятирічного комп'ютерного генія (хакера) Дейва Мерфі були оштрафовані на 45 тисяч доларів, а сам він був засуджений на сім років умовно за розповсюдження віруса в 1507 мережах і за виклик паніки на біржі Волл-Стріт. Йому було заборонено користуватись комп'ютером і телефоном до 18 років. Пройшло 7 років і в новій школі в Нью-Йорку він познайомився з компанією таких самих хакерів. Один з них випадково проникнув в мережу міжнародної нафто-транспортної корпорації і переписав файл, який розвінчує діяльність глави служби комп'ютерної безпеки, - той використовував "черв'яка" для крадіжки 25 млн. доларів. Злодій, дізнавшись про це, вирішив звалити усю вину на хакерів. Тоді всі хакери світу об'єднались через інтернет і почали війну з цинічним злодієм. Але чи зуміють вони отримати перемогу до 9 години ранку наступного дня -- саме в цей час призначено їхній арешт, а "світить" їм до 30 років тюрми?


Тривалість: 01:45:22
Якість:
Відео:
кодек: H.265 (HEVC)
розмір кадру: 1920 х 820
бітрейт: 6 876 кб/с
бітова глибина: 10 біт
Увага! Перед завантаженням переконайтесь, що ваш пристрій відтворення (та/або ПЗ) підтримує H.265 (HEVC)

Аудіо # 1:
мова: українська
переклад: багатоголосий закадровий
кодек: 2.0
бітрейт: 192 кб/с

Аудіо # 2:
мова: українська
переклад: двоголосий закадровий
кодек: 2.0
бітрейт: 192 кб/с

Аудіо # 3:
мова: українська
переклад: багатоголосий закадровий
кодек: 2.0
бітрейт: 192 кб/с

Аудіо # 4:
мова: англійська
переклад: оригінал
кодек: 5.1
бітрейт: 448 кб/с

Субтитри:
мова: англійська
тип: програмні (м'які)
формат: *.srt


Info
Код:
General
Unique ID                                : 64163370232302105130029585845519152329 (0x30456A652CFE5B608A2CB90372F474C9)
Complete name                            : F:\Video\Hackers (1995) [RM] 1080p H.265 [3xUKR_ENG].
Format                                   :
Format version                           : Version 4 / Version 2
File size                                : 5.81 GiB
Duration                                 : 1 h 45 min
Overall bit rate                         : 7 902 kb/s
Movie name                               : Hackers (1995) [RM]
Encoded date                             : UTC 2018-09-05 23:31:06
Writing application                      : v20.0.0 ('I Am The Sun') 32-bit
Writing library                          : libebml v1.3.5 + v1.4.8
Cover                                    : Yes
Attachments                              : cover.jpg

Video
ID                                       : 1
Format                                   : HEVC
Format/Info                              : High Efficiency Video Coding
Format profile                           : Main [email protected]@High
Codec ID                                 : V_MPEGH/ISO/HEVC
Duration                                 : 1 h 45 min
Bit rate                                 : 6 876 kb/s
Width                                    : 1 920 pixels
Height                                   : 820 pixels
Display aspect ratio                     : 2.35:1
Frame rate mode                          : Constant
Frame rate                               : 24.000 FPS
Color space                              : YUV
Chroma subsampling                       : 4:2:0
Bit depth                                : 10 bits
Bits/(Pixel*Frame)                       : 0.182
Stream size                              : 5.06 GiB (87%)
Writing library                          : x265 2.8+49-5d34bbf671f7:[Windows][GCC 8.1.1][64 bit] 10bit
Encoding settings                        : cpuid=1176575 / frame-threads=4 / numa-pools=16 / wpp / no-pmode / no-pme / no-psnr / no-ssim / log-level=2 / input-csp=1 / input-res=1920x820 / interlace=0 / total-frames=151580 / level-idc=41 / high-tier=1 / uhd-bd=0 / ref=5 / no-allow-non-conformance / no-repeat-headers / annexb / no-aud / no-hrd / info / hash=0 / no-temporal-layers / open-gop / min-keyint=24 / keyint=240 / gop-lookahead=0 / bframes=8 / b-adapt=2 / b-pyramid / bframe-bias=0 / rc-lookahead=60 / lookahead-slices=4 / scenecut=40 / radl=0 / no-intra-refresh / ctu=64 / min-cu-size=8 / rect / amp / max-tu-size=32 / tu-inter-depth=3 / tu-intra-depth=3 / limit-tu=4 / rdoq-level=1 / dynamic-rd=0.00 / no-ssim-rd / signhide / no-tskip / nr-intra=0 / nr-inter=0 / no-constrained-intra / no-strong-intra-smoothing / max-merge=4 / limit-refs=2 / limit-modes / me=3 / subme=7 / merange=57 / temporal-mvp / weightp / weightb / no-analyze-src-pics / deblock=-3:-3 / no-sao / no-sao-non-deblock / rd=6 / no-early-skip / rskip / no-fast-intra / no-tskip-fast / no-cu-lossless / b-intra / no-splitrd-skip / rdpenalty=0 / psy-rd=2.00 / psy-rdoq=1.00 / no-rd-refine / no-lossless / cbqpoffs=0 / crqpoffs=0 / rc=crf / crf=18.5 / qcomp=0.60 / qpstep=4 / stats-write=0 / stats-read=0 / vbv-maxrate=50000 / vbv-bufsize=50000 / vbv-init=0.9 / crf-max=0.0 / crf-min=0.0 / ipratio=1.40 / pbratio=1.30 / aq-mode=1 / aq-strength=1.00 / cutree / zone-count=0 / no-strict-cbr / qg-size=32 / no-rc-grain / qpmax=69 / qpmin=0 / no-const-vbv / sar=1 / overscan=0 / videoformat=5 / range=0 / colorprim=1 / transfer=1 / colormatrix=1 / chromaloc=0 / display-window=0 / max-cll=0,0 / min-luma=0 / max-luma=1023 / log2-max-poc-lsb=8 / vui-timing-info / vui-hrd-info / slices=1 / no-opt-qp-pps / no-opt-ref-list-length-pps / no-multi-pass-opt-rps / scenecut-bias=0.05 / no-opt-cu-delta-qp / no-aq-motion / no-hdr / no-hdr-opt / no-dhdr10-opt / no-idr-recovery-sei / analysis-reuse-level=5 / scale-factor=0 / refine-intra=0 / refine-inter=0 / refine-mv=0 / no-limit-sao / ctu-info=0 / no-lowpass-dct / refine-mv-type=0 / copy-pic=1 / max-ausize-factor=1.0 / no-dynamic-refine / no-single-sei
Language                                 : English
Default                                  : Yes
Forced                                   : No
Color range                              : Limited
Color primaries                          : BT.709
Transfer characteristics                 : BT.709
Matrix coefficients                      : BT.709

Audio #1
ID                                       : 2
Format                                   : AC-3
Format/Info                              : Audio Coding 3
Codec ID                                 : A_AC3
Duration                                 : 1 h 45 min
Bit rate mode                            : Constant
Bit rate                                 : 192 kb/s
Channel(s)                               : 2 channels
Channel positions                        : Front: L R
Sampling rate                            : 48.0 kHz
Frame rate                               : 31.250 FPS (1536 SPF)
Bit depth                                : 16 bits
Compression mode                         : Lossy
Stream size                              : 144 MiB (2%)
Title                                    : AMC
Language                                 : Ukrainian
Service kind                             : Complete Main
Default                                  : Yes
Forced                                   : No

Audio #2
ID                                       : 3
Format                                   : AC-3
Format/Info                              : Audio Coding 3
Codec ID                                 : A_AC3
Duration                                 : 1 h 45 min
Bit rate mode                            : Constant
Bit rate                                 : 192 kb/s
Channel(s)                               : 2 channels
Channel positions                        : Front: L R
Sampling rate                            : 48.0 kHz
Frame rate                               : 31.250 FPS (1536 SPF)
Bit depth                                : 16 bits
Compression mode                         : Lossy
Stream size                              : 145 MiB (2%)
Title                                    : TET
Language                                 : Ukrainian
Service kind                             : Complete Main
Default                                  : No
Forced                                   : No

Audio #3
ID                                       : 4
Format                                   : AC-3
Format/Info                              : Audio Coding 3
Codec ID                                 : A_AC3
Duration                                 : 1 h 45 min
Bit rate mode                            : Constant
Bit rate                                 : 192 kb/s
Channel(s)                               : 2 channels
Channel positions                        : Front: L R
Sampling rate                            : 48.0 kHz
Frame rate                               : 31.250 FPS (1536 SPF)
Bit depth                                : 16 bits
Compression mode                         : Lossy
Stream size                              : 145 MiB (2%)
Title                                    : ICTV
Language                                 : Ukrainian
Service kind                             : Complete Main
Default                                  : No
Forced                                   : No

Audio #4
ID                                       : 5
Format                                   : AC-3
Format/Info                              : Audio Coding 3
Codec ID                                 : A_AC3
Duration                                 : 1 h 45 min
Bit rate mode                            : Constant
Bit rate                                 : 448 kb/s
Channel(s)                               : 6 channels
Channel positions                        : Front: L C R, Side: L R, LFE
Sampling rate                            : 48.0 kHz
Frame rate                               : 31.250 FPS (1536 SPF)
Bit depth                                : 16 bits
Compression mode                         : Lossy
Stream size                              : 337 MiB (6%)
Title                                    : Original
Language                                 : English
Service kind                             : Complete Main
Default                                  : No
Forced                                   : No

Text
ID                                       : 6
Format                                   : UTF-8
Codec ID                                 : S_TEXT/UTF8
Codec ID/Info                            : UTF-8 Plain Text
Duration                                 : 1 h 41 min
Bit rate                                 : 65 b/s
Count of elements                        : 1483
Stream size                              : 48.3 KiB (0%)
Language                                 : English
Default                                  : Yes
Forced                                   : No

Menu
00:00:00.000                             : en:00:00:00.000
00:04:52.833                             : en:00:04:52.833
00:10:11.583                             : en:00:10:11.583
00:15:00.417                             : en:00:15:00.417
00:18:50.875                             : en:00:18:50.875
00:25:39.708                             : en:00:25:39.708
00:30:09.917                             : en:00:30:09.917
00:33:41.208                             : en:00:33:41.208
00:39:39.000                             : en:00:39:39.000
00:44:10.250                             : en:00:44:10.250
00:49:25.542                             : en:00:49:25.542
00:54:23.958                             : en:00:54:23.958
00:58:24.417                             : en:00:58:24.417
01:04:39.667                             : en:01:04:39.667
01:09:02.500                             : en:01:09:02.500
01:14:36.208                             : en:01:14:36.208
01:22:13.000                             : en:01:22:13.000
01:29:16.917                             : en:01:29:16.917
01:33:54.458                             : en:01:33:54.458
01:38:34.250                             : en:01:38:34.250
Скріншоти




Джерело:
Особиста оцінка: 0 - не дивився


Бронзовий реліз (на рейтинг впливає 75% завантаженого)
 Трекер:    Зареєстрований   

Завантажити / скачати фільм українською



відео для новачків



 Зареєстрований:   2018-09-25 12:12
 Розмір:   5.81 GB 
 Оцінка фільму:   10/10 (Голосів: 2)
   
Інші релізи
   Хакери / Hackers (1995) 1080p 3xUkr/Eng | Sub Eng drop_plz  1 / 0   8.79 GB   2018-08-24 06:34 
   Хакери / Hackers (1995) 3xUkr/Eng Arsenfpu  3 / 0   2.19 GB   2017-07-12 12:43 
   Хакери / Hackers (1995) [MP4, 480x] apvAltisimo  0 / 0   477 MB   2016-08-17 16:21 
Ваш часовий пояс: GMT + 2 Години

Нова тема   Відповісти