Дужчий / Stronger (2017) mini 1080p H.265 Ukr/Eng | Sub Eng

Нові коментарі

Нова тема   Відповісти
Автор Повідомлення
-Star-Lord- 
Поважний учасник


З нами з: 09.08.18
Востаннє: 19.10.18
Повідомлень: 209

2018-09-25 11:16  
Дужчий / Stronger (2017) mini 1080p H.265 Ukr/Eng | Sub Eng

Дужчий / Stronger (2017) mini 1080p H.265 Ukr/Eng | Sub Eng


Жанр: біографічний, драма
Країна: США



Кінокомпанія: Bold Films, Lionsgate, Mandeville Films
Режисер: Девід Гордон Грін
Актори: Джейк Джилленгол, Тетяна Маслані, Міранда Річардсон, Річард Лейн, Нейт Річман, Ленні Кларк, Кленсі Браун, Денні МакКарті

Сюжет:
Історія Джеффа Баумана, одного з учасників трагічних подій на Бостонському марафоні в 2013 році, який в результаті вибухів втратив обидві ноги...


Українською мовою озвучено студією BaibakoTV на замовлення HURTOM.COM


Тривалість: 01:58:54
Якість:
Відео:
кодек: H.265 (HEVC)
розмір кадру: 1920 х 804
бітрейт: 4 421 кб/с
бітова глибина: 10 біт
Увага! Перед завантаженням переконайтесь, що ваш пристрій відтворення (та/або ПЗ) підтримує H.265 (HEVC)

Аудіо # 1:
мова: українська
переклад: багатоголосий закадровий
кодек: 5.1
бітрейт: 1 509 кб/с

Аудіо # 2:
мова: англійська
переклад: оригінал
кодек: 5.1
бітрейт: 448 кб/с

Субтитри # 1-2:
мова: англійська (Full, SDH)
тип: програмні (м'які)
формат: *.srt


Info
Код:
General
Unique ID                                : 240783246209207739996669583855757258009 (0xB5252A9910FEEFECA4D9E3AF1DAF6D19)
Complete name                            : F:\Video\Stronger (2017) 1080p H.265 [UKR_ENG].
Format                                   :
Format version                           : Version 4 / Version 2
File size                                : 5.30 GiB
Duration                                 : 1 h 58 min
Overall bit rate                         : 6 380 kb/s
Movie name                               : Stronger (2017)
Encoded date                             : UTC 2018-09-23 09:18:05
Writing application                      : v20.0.0 ('I Am The Sun') 32-bit
Writing library                          : libebml v1.3.5 + v1.4.8
Cover                                    : Yes
Attachments                              : Cover.jpg

Video
ID                                       : 1
Format                                   : HEVC
Format/Info                              : High Efficiency Video Coding
Format profile                           : Main [email protected]@Main
Codec ID                                 : V_MPEGH/ISO/HEVC
Duration                                 : 1 h 58 min
Bit rate                                 : 4 421 kb/s
Width                                    : 1 920 pixels
Height                                   : 804 pixels
Display aspect ratio                     : 2.40:1
Frame rate mode                          : Constant
Frame rate                               : 23.976 (24000/1001) FPS
Color space                              : YUV
Chroma subsampling                       : 4:2:0
Bit depth                                : 10 bits
Bits/(Pixel*Frame)                       : 0.119
Stream size                              : 3.67 GiB (69%)
Writing library                          : x265 2.7+12-98e48e8dd6ab:[Windows][GCC 7.3.0][64 bit] 10bit
Encoding settings                        : cpuid=1173503 / frame-threads=3 / numa-pools=8 / wpp / no-pmode / no-pme / no-psnr / no-ssim / log-level=2 / input-csp=1 / input-res=1920x804 / interlace=0 / total-frames=171047 / level-idc=0 / high-tier=1 / uhd-bd=0 / ref=4 / no-allow-non-conformance / no-repeat-headers / annexb / no-aud / no-hrd / info / hash=0 / no-temporal-layers / open-gop / min-keyint=23 / keyint=250 / gop-lookahead=0 / bframes=4 / b-adapt=2 / b-pyramid / bframe-bias=0 / rc-lookahead=25 / lookahead-slices=4 / scenecut=40 / radl=0 / no-intra-refresh / ctu=64 / min-cu-size=8 / rect / no-amp / max-tu-size=32 / tu-inter-depth=1 / tu-intra-depth=1 / limit-tu=0 / rdoq-level=2 / dynamic-rd=0.00 / no-ssim-rd / signhide / no-tskip / nr-intra=0 / nr-inter=0 / no-constrained-intra / strong-intra-smoothing / max-merge=3 / limit-refs=3 / limit-modes / me=3 / subme=3 / merange=57 / temporal-mvp / weightp / no-weightb / no-analyze-src-pics / deblock=0:0 / sao / no-sao-non-deblock / rd=4 / no-early-skip / rskip / no-fast-intra / no-tskip-fast / no-cu-lossless / no-b-intra / no-splitrd-skip / rdpenalty=0 / psy-rd=2.00 / psy-rdoq=1.00 / no-rd-refine / no-lossless / cbqpoffs=0 / crqpoffs=0 / rc=abr / bitrate=4420 / qcomp=0.60 / qpstep=4 / stats-write=0 / stats-read=2 / cplxblur=20.0 / qblur=0.5 / ipratio=1.40 / pbratio=1.30 / aq-mode=3 / aq-strength=1.00 / cutree / zone-count=0 / no-strict-cbr / qg-size=32 / no-rc-grain / qpmax=69 / qpmin=0 / no-const-vbv / sar=0 / overscan=0 / videoformat=5 / range=0 / colorprim=2 / transfer=2 / colormatrix=2 / chromaloc=0 / display-window=0 / max-cll=0,0 / min-luma=0 / max-luma=1023 / log2-max-poc-lsb=8 / vui-timing-info / vui-hrd-info / slices=1 / no-opt-qp-pps / no-opt-ref-list-length-pps / multi-pass-opt-rps / scenecut-bias=0.05 / no-opt-cu-delta-qp / aq-motion / no-hdr / no-hdr-opt / no-dhdr10-opt / no-idr-recovery-sei / analysis-reuse-level=5 / scale-factor=0 / refine-intra=0 / refine-inter=0 / refine-mv=0 / no-limit-sao / ctu-info=0 / no-lowpass-dct / refine-mv-type=0 / copy-pic=1 / max-ausize-factor=1.0 / no-dynamic-refine
Default                                  : Yes
Forced                                   : No

Audio #1
ID                                       : 2
Format                                   :
Format/Info                              : Digital Theater Systems
Codec ID                                 : A_DTS
Duration                                 : 1 h 58 min
Bit rate mode                            : Constant
Bit rate                                 : 1 509 kb/s
Channel(s)                               : 6 channels
Channel positions                        : Front: L C R, Side: L R, LFE
Sampling rate                            : 48.0 kHz
Frame rate                               : 93.750 FPS (512 SPF)
Bit depth                                : 24 bits
Compression mode                         : Lossy
Stream size                              : 1.25 GiB (24%)
Title                                    : Baibako TV | 5.1 @ 1509 kbps
Language                                 : Ukrainian
Default                                  : Yes
Forced                                   : Yes

Audio #2
ID                                       : 3
Format                                   : AC-3
Format/Info                              : Audio Coding 3
Codec ID                                 : A_AC3
Duration                                 : 1 h 58 min
Bit rate mode                            : Constant
Bit rate                                 : 448 kb/s
Channel(s)                               : 6 channels
Channel positions                        : Front: L C R, Side: L R, LFE
Sampling rate                            : 48.0 kHz
Frame rate                               : 31.250 FPS (1536 SPF)
Bit depth                                : 16 bits
Compression mode                         : Lossy
Stream size                              : 381 MiB (7%)
Title                                    : Original | 5.1 @ 448 kbps
Language                                 : English
Service kind                             : Complete Main
Default                                  : No
Forced                                   : No

Text #1
ID                                       : 4
Format                                   : UTF-8
Codec ID                                 : S_TEXT/UTF8
Codec ID/Info                            : UTF-8 Plain Text
Duration                                 : 1 h 51 min
Bit rate                                 : 71 b/s
Count of elements                        : 2011
Stream size                              : 58.1 KiB (0%)
Title                                    : Full
Language                                 : English
Default                                  : Yes
Forced                                   : No

Text #2
ID                                       : 5
Format                                   : UTF-8
Codec ID                                 : S_TEXT/UTF8
Codec ID/Info                            : UTF-8 Plain Text
Duration                                 : 1 h 51 min
Bit rate                                 : 82 b/s
Count of elements                        : 2224
Stream size                              : 67.5 KiB (0%)
Title                                    : SDH
Language                                 : English
Default                                  : No
Forced                                   : No

Menu
00:00:00.000                             : en:Chapter 01
00:07:32.827                             : en:Chapter 02
00:15:35.935                             : en:Chapter 03
00:23:41.586                             : en:Chapter 04
00:32:34.410                             : en:Chapter 05
00:40:17.039                             : en:Chapter 06
00:46:39.087                             : en:Chapter 07
00:53:56.650                             : en:Chapter 08
01:00:09.480                             : en:Chapter 09
01:06:37.743                             : en:Chapter 10
01:11:42.756                             : en:Chapter 11
01:20:15.977                             : en:Chapter 12
01:31:28.441                             : en:Chapter 13
01:37:09.365                             : en:Chapter 14
01:45:33.535                             : en:Chapter 15
01:52:40.587                             : en:Chapter 16
Скріншоти




Джерело:
Особиста оцінка: 10 - без зайвих вагань рекомендую всім!


Авторський реліз (завантажувати можна без реєстрації)
 Трекер:    Зареєстрований   

Завантажити / скачати фільм українською



відео для новачків



 Зареєстрований:   2018-09-25 11:16
 Розмір:   5.3 GB 
 Оцінка фільму:   6.7/10 (Голосів: 3)
   
Інші релізи
   Дужчий / Stronger (2017) Remux 1080p Ukr/Eng | Sub Eng Electroz  5 / 0   27.86 GB   2018-02-23 19:53 
   Дужчий / Stronger (2017) 1080p Ukr/Eng | sub Eng Arsenfpu  11 / 0   13.91 GB   2018-02-22 05:33 
   Дужчий / Stronger (2017) 720p Ukr/Eng | sub Eng Arsenfpu  21 / 0   3.65 GB   2018-02-22 04:24 
   Дужчий / Stronger (2017) AVC Arsenfpu  20 / 3   868 MB   2018-02-22 03:27 
0mage0 
VIP


З нами з: 06.10.15
Востаннє: 19.10.18
Повідомлень: 368

2018-10-07 12:57  
Дивитися можна. Дивно, що серед багатьох, хто постраждав у цьому марафоні, один став таким "народним героєм". Хоча, мабуть, так і буває, як у нас із Сєнцовим, Савченко.
Прочитав у Вікіпедії, вони з цією дівчиною в 2017 таки розійшлися.

Ваш часовий пояс: GMT + 2 Години

Нова тема   Відповісти