Я початок / I Origins (2014) 1080p H.265 Ukr/Eng | Sub Ukr/Eng

Нові коментарі

Нова тема   Відповісти
Автор Повідомлення
-Star-Lord- 
VIP


З нами з: 09.08.18
Востаннє: 10.12.18
Повідомлень: 329

2018-09-25 10:08  
Я початок / I Origins (2014) 1080p H.265 Ukr/Eng | Sub Ukr/Eng

Я початок / I Origins (2014) 1080p H.265 Ukr/Eng | Sub Ukr/Eng


Жанр: фантастика, драма
Країна: США



Кінокомпанія: Bersin Pictures, Penny Jane Films, Verisimilitude, WeWork Studio
Режисер: Майк Кехілл
Актори: Майкл Пітт, Стівен Ян, Астрід Берже-фризбі, Бріт Марлінг, Доріен Маклогі, Kashish, Кара Сеймур, Вільям Мапотер

Сюжет:
Молодого і перспективного мікробіолога всюди переслідує цифра "11". Він не впираючись слідує за нею і вона приводить його до молодої дівчини в яку наш герой шалено закохується. Дівчина відкриває йому світ зовсім в іншому ракурсі і для нього її очі сьогодення "дзеркало душі". Але дівчина вмирає. Він занурюється в роботу, разом зі своєю помічницею, робить неймовірне відкриття, яке змінює розуміння всього зародження життя людей і це відкриття може змінити весь світ...


Тривалість: 01:47:35
Якість:
Відео:
кодек: H.265 (HEVC)
розмір кадру: 1918 х 800
бітрейт: 8 242 кб/с
бітова глибина: 10 біт
Увага! Перед завантаженням переконайтесь, що ваш пристрій відтворення (та/або ПЗ) підтримує H.265 (HEVC)

Аудіо # 1:
мова: українська
переклад: багатоголосий закадровий
кодек: 2.0
бітрейт: 192 кб/с

Аудіо # 2:
мова: англійська
переклад: оригінал
кодек: 5.1
бітрейт: 448 кб/с

Субтитри # 1:
мова: українська
тип: програмні (м'які)
формат: *.srt

Субтитри # 2:
мова: англійська
тип: програмні (м'які)
формат: *.srt


Info
Код:
General
Unique ID                                : 90742234730645428372032251099304635769 (0x44445196E6FDE85DD0A7DB325B7B2D79)
Complete name                            : F:\Video\I Origins (2014) 1080p H.265 [UKR_ENG].
Format                                   :
Format version                           : Version 4 / Version 2
File size                                : 6.68 GiB
Duration                                 : 1 h 47 min
Overall bit rate                         : 8 885 kb/s
Movie name                               : I Origins (2014)
Encoded date                             : UTC 2018-09-22 21:29:00
Writing application                      : v20.0.0 ('I Am The Sun') 32-bit
Writing library                          : libebml v1.3.5 + v1.4.8
Cover                                    : Yes
Attachments                              : Cover.jpg

Video
ID                                       : 1
Format                                   : HEVC
Format/Info                              : High Efficiency Video Coding
Format profile                           : Main [email protected]@High
Codec ID                                 : V_MPEGH/ISO/HEVC
Duration                                 : 1 h 47 min
Bit rate                                 : 8 242 kb/s
Width                                    : 1 918 pixels
Height                                   : 800 pixels
Display aspect ratio                     : 2.40:1
Frame rate mode                          : Constant
Frame rate                               : 23.976 (24000/1001) FPS
Color space                              : YUV
Chroma subsampling                       : 4:2:0
Bit depth                                : 10 bits
Bits/(Pixel*Frame)                       : 0.224
Stream size                              : 6.19 GiB (93%)
Writing library                          : x265 2.8+19-bcdc610cf5f0:[Windows][GCC 7.3.0][64 bit] 10bit
Encoding settings                        : cpuid=1064959 / frame-threads=9 / numa-pools=8 / wpp / no-pmode / no-pme / no-psnr / no-ssim / log-level=3 / input-csp=1 / input-res=1918x800 / interlace=0 / total-frames=0 / level-idc=51 / high-tier=1 / uhd-bd=0 / ref=5 / allow-non-conformance / no-repeat-headers / annexb / no-aud / no-hrd / info / hash=0 / no-temporal-layers / open-gop / min-keyint=24 / keyint=240 / gop-lookahead=0 / bframes=7 / b-adapt=2 / b-pyramid / bframe-bias=0 / rc-lookahead=40 / lookahead-slices=5 / scenecut=40 / radl=0 / no-intra-refresh / ctu=64 / min-cu-size=8 / no-rect / no-amp / max-tu-size=32 / tu-inter-depth=1 / tu-intra-depth=1 / limit-tu=0 / rdoq-level=0 / dynamic-rd=0.00 / no-ssim-rd / signhide / no-tskip / nr-intra=0 / nr-inter=0 / no-constrained-intra / strong-intra-smoothing / max-merge=2 / limit-refs=3 / no-limit-modes / me=3 / subme=7 / merange=57 / temporal-mvp / weightp / no-weightb / no-analyze-src-pics / deblock=-3:-3 / no-sao / no-sao-non-deblock / rd=4 / no-early-skip / rskip / no-fast-intra / no-tskip-fast / no-cu-lossless / no-b-intra / no-splitrd-skip / rdpenalty=0 / psy-rd=2.00 / psy-rdoq=0.00 / no-rd-refine / no-lossless / cbqpoffs=0 / crqpoffs=0 / rc=crf / crf=18.0 / qcomp=0.60 / qpstep=4 / stats-write=0 / stats-read=0 / vbv-maxrate=160000 / vbv-bufsize=160000 / vbv-init=0.9 / crf-max=0.0 / crf-min=0.0 / ipratio=1.40 / pbratio=1.30 / aq-mode=1 / aq-strength=1.00 / cutree / zone-count=0 / no-strict-cbr / qg-size=32 / no-rc-grain / qpmax=69 / qpmin=0 / no-const-vbv / sar=1 / overscan=0 / videoformat=5 / range=0 / colorprim=2 / transfer=2 / colormatrix=2 / chromaloc=0 / display-window=0 / max-cll=0,0 / min-luma=0 / max-luma=1023 / log2-max-poc-lsb=8 / vui-timing-info / vui-hrd-info / slices=1 / no-opt-qp-pps / no-opt-ref-list-length-pps / no-multi-pass-opt-rps / scenecut-bias=0.05 / no-opt-cu-delta-qp / no-aq-motion / no-hdr / no-hdr-opt / no-dhdr10-opt / no-idr-recovery-sei / analysis-reuse-level=5 / scale-factor=0 / refine-intra=0 / refine-inter=0 / refine-mv=0 / no-limit-sao / ctu-info=0 / no-lowpass-dct / refine-mv-type=0 / copy-pic=1 / max-ausize-factor=1.0 / no-dynamic-refine / no-single-sei
Default                                  : Yes
Forced                                   : No

Audio #1
ID                                       : 2
Format                                   : AC-3
Format/Info                              : Audio Coding 3
Codec ID                                 : A_AC3
Duration                                 : 1 h 47 min
Bit rate mode                            : Constant
Bit rate                                 : 192 kb/s
Channel(s)                               : 2 channels
Channel positions                        : Front: L R
Sampling rate                            : 48.0 kHz
Frame rate                               : 31.250 FPS (1536 SPF)
Bit depth                                : 16 bits
Compression mode                         : Lossy
Stream size                              : 148 MiB (2%)
Title                                    : 1+1
Language                                 : Ukrainian
Service kind                             : Complete Main
Default                                  : Yes
Forced                                   : No

Audio #2
ID                                       : 3
Format                                   : AC-3
Format/Info                              : Audio Coding 3
Codec ID                                 : A_AC3
Duration                                 : 1 h 47 min
Bit rate mode                            : Constant
Bit rate                                 : 448 kb/s
Channel(s)                               : 6 channels
Channel positions                        : Front: L C R, Side: L R, LFE
Sampling rate                            : 48.0 kHz
Frame rate                               : 31.250 FPS (1536 SPF)
Bit depth                                : 16 bits
Compression mode                         : Lossy
Stream size                              : 345 MiB (5%)
Title                                    : Original
Language                                 : English
Service kind                             : Complete Main
Default                                  : No
Forced                                   : No

Text #1
ID                                       : 4
Format                                   : UTF-8
Codec ID                                 : S_TEXT/UTF8
Codec ID/Info                            : UTF-8 Plain Text
Duration                                 : 1 h 46 min
Bit rate                                 : 77 b/s
Count of elements                        : 1172
Stream size                              : 60.3 KiB (0%)
Title                                    : Ukr
Language                                 : Ukrainian
Default                                  : Yes
Forced                                   : No

Text #2
ID                                       : 5
Format                                   : UTF-8
Codec ID                                 : S_TEXT/UTF8
Codec ID/Info                            : UTF-8 Plain Text
Duration                                 : 1 h 46 min
Bit rate                                 : 53 b/s
Count of elements                        : 1510
Stream size                              : 41.4 KiB (0%)
Title                                    : Eng
Language                                 : English
Default                                  : No
Forced                                   : No

Menu
00:00:00.000                             : en:Chapter 1
00:02:40.828                             : en:Chapter 2
00:05:32.914                             : en:Chapter 3
00:07:23.900                             : en:Chapter 4
00:12:35.713                             : en:Chapter 5
00:13:52.412                             : en:Chapter 6
00:16:43.461                             : en:Chapter 7
00:19:01.181                             : en:Chapter 8
00:21:32.875                             : en:Chapter 9
00:25:36.742                             : en:Chapter 10
00:29:38.233                             : en:Chapter 11
00:32:51.428                             : en:Chapter 12
00:36:25.434                             : en:Chapter 13
00:42:30.340                             : en:Chapter 14
00:46:38.127                             : en:Chapter 15
00:50:51.256                             : en:Chapter 16
00:54:16.502                             : en:Chapter 17
00:58:26.545                             : en:Chapter 18
01:02:26.577                             : en:Chapter 19
01:05:25.963                             : en:Chapter 20
01:07:49.565                             : en:Chapter 21
01:12:53.536                             : en:Chapter 22
01:16:32.296                             : en:Chapter 23
01:18:40.216                             : en:Chapter 24
01:21:19.125                             : en:Chapter 25
01:24:00.452                             : en:Chapter 26
01:26:06.912                             : en:Chapter 27
01:27:52.558                             : en:Chapter 28
01:32:45.725                             : en:Chapter 29
01:37:39.813                             : en:Chapter 30
01:39:03.603                             : en:Chapter 31
01:42:23.555                             : en:Chapter 32
Скріншоти




Джерело:
Особиста оцінка: 10 - без зайвих вагань рекомендую всім!


 Трекер:    Зареєстрований   

Завантажити / скачати фільм українською



відео для новачків



 Зареєстрований:   2018-09-25 10:08
 Розмір:   6.68 GB 
 Оцінка фільму:   6/10 (Голосів: 6)
   
Інші релізи
   Я початок / I Origins (2014) 720p Ukr/Eng | sub Ukr/Eng staf777  8 / 0   4.52 GB   2018-07-11 09:41 
   Я початок / I Origins (2014) 1080p Ukr/Eng | sub Ukr/Eng IronBee  3 / 0   11.88 GB   2018-07-10 19:38 
   Я початок / I Origins (2014) Ukr/Eng drop_plz  21 / 0   1.82 GB   2018-06-19 16:36 
   Я початок / I Origins (2014) AVC Ukr/Eng | Sub Ukr/Eng drop_plz  31 / 0   2.46 GB   2018-06-19 16:30 
   Я початок / I Origins (2014) AVC Eng | sub Ukr AngryBirdsUA  5 / 0   1.54 GB   2014-12-12 16:25 
Ваш часовий пояс: GMT + 2 Години

Нова тема   Відповісти