Дивні дні / Strange Days (1995) 720p 2xUkr/Eng |Sub Eng

Нові коментарі

Нова тема   Відповісти
Автор Повідомлення
Anonymous 







2018-09-25 08:22  
Дивні дні / Strange Days (1995) 720p 2xUkr/Eng |Sub Eng

Дивні дні / Strange Days (1995) 720p 2xUkr/Eng |Sub Eng


Жанр: трилер, драма, фантастика, кримінальний, кіберпанк
Країна: США



Кінокомпанія: 20th Century Fox
Режисер: Кетрін Бігелоу
Актори: Ральф Файнс, Анджела Бассетт, Джульєт Льюїс, Том Сайзмор, Майкл Вінкотт, Вінсент Д'Онофріо, Гленн Пламмер, Бріжит Бако, Річард Едсон, Вільям Фіхтнер

Сюжет:
1999 рік. Величезною популярністю користується новий винахід, розроблений ФБР з метою стеження, але він потрапив на «чорний» ринок. Одягнувши на голову невелике пристосування з датчиками, можна записати відчуття і «пережити» їх через програвач, причому з абсолютною достовірністю. Можна прийняти душ в тілі 16-річної дівчини, можна ... Хтось записує відчуття людей, що гинуть насильницькою смертю - знаходяться мисливці і таких гострих відчуттів.
Ленні Неро, що торгує дискетами з записаними на них людськими відчуттями, веде своє власне розслідування вбивства знайомої дівчини, чия смерть теж була відображена на подібний пристрій. Допомагає йому в цій справі дуже крута кольорова дівиця ...


Тривалість: 02:25:11
Якість: 720p
Відео:
кодек:
розмір кадру: 1280х544
бітрейт: 6300 кб/с

Аудіо # 1:
мова: українська
переклад: двоголосий закадровий
кодек: 5.1
бітрейт: 384 кб/с

Аудіо # 2:
мова: українська
переклад: двоголосий закадровий
кодек: 5.1
бітрейт: 384 кб/с

Аудіо # 3:
мова: англійська
переклад: оригінал
кодек: 5.1
бітрейт: 1510 кб/с

Субтитри:
мова: англійська
тип: програмні (м'які)
формат: *.srt
Info
General
Unique ID : 238376958650788949207347990942712699843 (0xB355BB7629575A3BB7FB89F5F26D9BC3)
Format :
Format version : Version 4 / Version 2
File size : 8.70 GiB
Duration : 2 h 25 min
Overall bit rate : 8 581 kb/s
Movie name : Strange Days (1995)
Encoded date : UTC 2018-09-25 06:14:04
Writing application : v6.1.0 ('Old Devil') built on Mar 4 2013 09:10:42
Writing library : libebml v1.3.0 + v1.4.0
Cover : Yes
Attachments : cover.jpg / back.jpg

Video
ID : 1
Format : AVC
Format/Info : Advanced Video Codec
Format profile : [email protected]
Format settings : CABAC / 12 Ref Frames
Format settings, CABAC : Yes
Format settings, ReFrames : 12 frames
Format settings, GOP : N=1
Codec ID : V_MPEG4/ISO/AVC
Duration : 2 h 25 min
Bit rate : 6 300 kb/s
Width : 1 280 pixels
Height : 544 pixels
Display aspect ratio : 2.35:1
Frame rate mode : Constant
Frame rate : 23.976 (24000/1001) FPS
Color space : YUV
Chroma subsampling : 4:2:0
Bit depth : 8 bits
Scan type : Progressive
Bits/(Pixel*Frame) : 0.377
Stream size : 6.22 GiB (71%)
Writing library : core 75 r1247M b3efbe5
Encoding settings : cabac=1 / ref=12 / deblock=1:-2:-2 / analyse=0x3:0x133 / me=umh / subme=10 / psy=1 / psy_rd=1.0:0.5 / mixed_ref=1 / me_range=32 / chroma_me=1 / trellis=2 / 8x8dct=1 / cqm=0 / deadzone=6,6 / chroma_qp_offset=-4 / threads=3 / nr=0 / decimate=0 / mbaff=0 / bframes=16 / b_pyramid=0 / b_adapt=2 / b_bias=0 / direct=3 / wpredb=1 / keyint=250 / keyint_min=25 / scenecut=40 / rc_lookahead=250 / rc=2pass / mbtree=1 / bitrate=6300 / ratetol=1.0 / qcomp=0.60 / qpmin=10 / qpmax=51 / qpstep=4 / cplxblur=20.0 / qblur=0.5 / ip_ratio=1.10 / aq=2:0.50
Language : English
Default : Yes
Forced : No

Audio #1
ID : 2
Format : AC-3
Format/Info : Audio Coding 3
Codec ID : A_AC3
Duration : 2 h 25 min
Bit rate mode : Constant
Bit rate : 384 kb/s
Channel(s) : 6 channels
Channel positions : Front: L C R, Side: L R, LFE
Sampling rate : 48.0 kHz
Frame rate : 31.250 FPS (1536 SPF)
Bit depth : 16 bits
Compression mode : Lossy
Stream size : 399 MiB (4%)
Title : UKR (1+1)
Language : Ukrainian
Service kind : Complete Main
Default : Yes
Forced : Yes

Audio #2
ID : 3
Format : AC-3
Format/Info : Audio Coding 3
Codec ID : A_AC3
Duration : 2 h 25 min
Bit rate mode : Constant
Bit rate : 384 kb/s
Channel(s) : 6 channels
Channel positions : Front: L C R, Side: L R, LFE
Sampling rate : 48.0 kHz
Frame rate : 31.250 FPS (1536 SPF)
Bit depth : 16 bits
Compression mode : Lossy
Stream size : 399 MiB (4%)
Title : UKR (Новий)
Language : Ukrainian
Service kind : Complete Main
Default : No
Forced : No

Audio #3
ID : 4
Format :
Format/Info : Digital Theater Systems
Codec ID : A_DTS
Duration : 2 h 25 min
Bit rate mode : Constant
Bit rate : 1 510 kb/s
Channel(s) : 6 channels
Channel positions : Front: L C R, Side: L R, LFE
Sampling rate : 48.0 kHz
Frame rate : 93.750 FPS (512 SPF)
Bit depth : 24 bits
Compression mode : Lossy
Stream size : 1.53 GiB (18%)
Language : English
Default : No
Forced : No

Text
ID : 5
Format : UTF-8
Codec ID : S_TEXT/UTF8
Codec ID/Info : UTF-8 Plain Text
Title : English
Language : English
Default : No
Forced : No

Menu
00:00:00.000 : en:The Attack Clip
00:09:51.925 : en:Iris on the Run
00:19:29.919 : en:Lenny & Keith
00:31:13.622 : en:Mr Funitsu
00:37:34.878 : en:SQUID-addicted
00:43:46.249 : en:Faith, the Singer
00:52:02.161 : en:Murder in Sunset Regent
01:01:26.433 : en:At Home with Faith
01:05:07.695 : en:Attack in Elevator
01:15:52.173 : en:The Chase
01:22:38.495 : en:Aunt Cecile's House
01:25:56.443 : en:The Murder Clip
01:31:49.713 : en:The Tick's Body
01:45:59.478 : en:Party of the Millennium
01:54:30.572 : en:Suite 2203
02:07:24.679 : en:The Countdown
Скріншоти











Подяка за звукові доріжки п.: imonko, MAKAPOHHIK, urij546724
Особиста подяка пану denixx за надану матеріальну допомогу на підтримку цього і майбутніх релізів.
Джерело:


Срібний реліз (на рейтинг впливає 50% завантаженого)
 Трекер:    Зареєстрований   

Завантажити / скачати фільм українською



відео для новачків



 Зареєстрований:   2018-09-25 08:22
 Розмір:   8.7 GB 
 Оцінка фільму:   10/10 (Голосів: 4)
   
Інші релізи
   Дивні дні / Strange Days (1995) [MP4, 640x] apvAltisimo  0 / 0   968 MB   2017-03-08 15:09 
   Дивні дні / Strange Days (1995) 2xUkr/Eng |Sub Eng TNT.KOT  7 / 0   2.85 GB   2013-07-09 13:32 
   Дивні дні / Strange Days (1995) AVC 2xUkr/Eng |Sub Eng imonko  0 / 0   4.29 GB   2012-02-16 13:35 
Ваш часовий пояс: GMT + 2 Години

Нова тема   Відповісти