Всупереч смерті / Hard to Kill (1990) AVC 3xUkr/Eng | Sub Eng

Нові коментарі

Нова тема   Відповісти
Автор Повідомлення
staf777 
Відео Гуртом - підтримка та поширення
Відео Гуртом - підтримка та поширення


З нами з: 16.11.16
Востаннє: 18.04.19
Повідомлень: 2258

2018-09-24 21:41  
Всупереч смерті / Hard to Kill (1990) AVC 3xUkr/Eng | Sub Eng

Всупереч смерті / Hard to Kill (1990) AVC 3xUkr/Eng | Sub Eng


Жанр: бойовик, драма, кримінальний
Країна: США



Кінокомпанія: Warner Bros., Lee Rich Productions
Режисер: Брюс Малмут
Актори: Стівен Сіґал , Келлі ЛеБрок , Вільям Седлер , Фредерік Соффін , Бонні Барроуз , Ендрю Блох , Бренскомб Річмонд ,Чарльз Босвелл , Захарі Розенкранц , Лу Бітті мол.

Сюжет:
Корумпований каліфорнійський політик і його найманці стріляли Лос-анджелесського детектива Мезона Сторма (Стівен Сіґал). Вони вважали його мертвими. Але ця помилка їм дорого обійдеться. Сторм живе усупереч смерті. Сім років Сторм провів у таємному укритті, де його виводили з коматозного стану. Він прокинувся з єдиною метою: помста. За допомогою відданої доглядальниці він готується до бою. Він удосконалюється в стрільбі, відпрацьовує свої навички у бойових мистецтвах і користується східною медициною, щоб повернути собі сили.


Тривалість: 01:35:38
Якість: AVC
Відео:
кодек:
розмір кадру: 1024×576
бітрейт: 2944 кб/с

Аудіо # 1: та
мова: українська
переклад: багатоголосий закадровий
кодек: 2.0
бітрейт: 192 кб/с

Аудіо # 2:
мова: українська
переклад: двоголосий закадровий
кодек: 2.0
бітрейт: 192 кб/с

Аудіо # 3:
мова: українська
переклад: багатоголосий закадровий
кодек: 2.0
бітрейт: 192 кб/с

Аудіо # 4:
мова: англійська
переклад: оригінал
кодек: 5.1
бітрейт: 384 кб/с

Субтитри:
мова: англійська
тип: програмні (м'які)
формат: *.srt
Скріншоти





MI
General
Unique ID : 141730383374750111916848309814341685063 (0x6AA047686BD53F4EF9B1C1D8EE804F47)
Complete name : S:\Фільми AVC\Бойовик\Hard to Kill (1990) AVC [2xUKR_ENG] [Hurtom].
Format :
Format version : Version 4 / Version 2
File size : 2.61 GiB
Duration : 1 h 35 min
Overall bit rate : 3 905 kb/s
Movie name : Hard to Kill (1990) AVC [2xUKR_ENG] [Hurtom]
Encoded date : UTC 2018-09-24 17:28:11
Writing application : v24.0.0 ('Beyond The Pale') 64-bit
Writing library : libebml v1.3.6 + v1.4.9
Cover : Yes
Attachments : cover.jpg

Video
ID : 1
Format : AVC
Format/Info : Advanced Video Codec
Format profile : [email protected]
Format settings : CABAC / 10 Ref Frames
Format settings, CABAC : Yes
Format settings, ReFrames : 10 frames
Codec ID : V_MPEG4/ISO/AVC
Duration : 1 h 35 min
Bit rate : 2 944 kb/s
Width : 1 024 pixels
Height : 576 pixels
Display aspect ratio : 16:9
Frame rate mode : Constant
Frame rate : 23.976 (24000/1001) FPS
Color space : YUV
Chroma subsampling : 4:2:0
Bit depth : 8 bits
Scan type : Progressive
Bits/(Pixel*Frame) : 0.208
Stream size : 1.97 GiB (75%)
Title : Hard to Kill
Writing library : core 125 r2200 999b753
Encoding settings : cabac=1 / ref=10 / deblock=1:-3:-3 / analyse=0x3:0x133 / me=umh / subme=10 / psy=1 / psy_rd=1.00:0.10 / mixed_ref=1 / me_range=48 / chroma_me=1 / trellis=2 / 8x8dct=1 / cqm=0 / deadzone=21,11 / fast_pskip=0 / chroma_qp_offset=-3 / threads=6 / lookahead_threads=1 / sliced_threads=0 / nr=0 / decimate=1 / interlaced=0 / bluray_compat=0 / constrained_intra=0 / bframes=6 / b_pyramid=2 / b_adapt=2 / b_bias=0 / direct=3 / weightb=1 / open_gop=0 / weightp=2 / keyint=240 / keyint_min=22 / scenecut=40 / intra_refresh=0 / rc_lookahead=40 / rc=2pass / mbtree=1 / bitrate=2944 / ratetol=1.0 / qcomp=0.60 / qpmin=10 / qpmax=51 / qpstep=4 / cplxblur=20.0 / qblur=0.5 / ip_ratio=1.40 / aq=1:1.00
Default : Yes
Forced : No

Audio #1
ID : 2
Format : AC-3
Format/Info : Audio Coding 3
Codec ID : A_AC3
Duration : 1 h 35 min
Bit rate mode : Constant
Bit rate : 192 kb/s
Channel(s) : 2 channels
Channel positions : Front: L R
Sampling rate : 48.0 kHz
Frame rate : 31.250 FPS (1536 SPF)
Bit depth : 16 bits
Compression mode : Lossy
Stream size : 131 MiB (5%)
Title : [UA-MVO-K1]
Language : Ukrainian
Service kind : Complete Main
Default : Yes
Forced : Yes

Audio #2
ID : 3
Format : AC-3
Format/Info : Audio Coding 3
Codec ID : A_AC3
Duration : 1 h 35 min
Bit rate mode : Constant
Bit rate : 192 kb/s
Channel(s) : 2 channels
Channel positions : Front: L R
Sampling rate : 48.0 kHz
Frame rate : 31.250 FPS (1536 SPF)
Bit depth : 16 bits
Compression mode : Lossy
Stream size : 131 MiB (5%)
Title : [UA-DVO-1+1]
Language : Ukrainian
Service kind : Complete Main
Default : No
Forced : No

Audio #3
ID : 4
Format : AC-3
Format/Info : Audio Coding 3
Codec ID : A_AC3
Duration : 1 h 35 min
Bit rate mode : Constant
Bit rate : 192 kb/s
Channel(s) : 2 channels
Channel positions : Front: L R
Sampling rate : 48.0 kHz
Frame rate : 31.250 FPS (1536 SPF)
Bit depth : 16 bits
Compression mode : Lossy
Stream size : 131 MiB (5%)
Title : [UA-MVO-ICTV]
Language : Ukrainian
Service kind : Complete Main
Default : No
Forced : No

Audio #4
ID : 5
Format : AC-3
Format/Info : Audio Coding 3
Codec ID : A_AC3
Duration : 1 h 35 min
Bit rate mode : Constant
Bit rate : 384 kb/s
Channel(s) : 6 channels
Channel positions : Front: L C R, Side: L R, LFE
Sampling rate : 48.0 kHz
Frame rate : 31.250 FPS (1536 SPF)
Bit depth : 16 bits
Compression mode : Lossy
Stream size : 263 MiB (10%)
Title : Original
Language : English
Service kind : Complete Main
Default : No
Forced : No

Text
ID : 6
Format : UTF-8
Codec ID : S_TEXT/UTF8
Codec ID/Info : UTF-8 Plain Text
Duration : 1 h 33 min
Bit rate : 40 b/s
Count of elements : 832
Stream size : 27.6 KiB (0%)
Title : Rip by _paravoz_
Language : English
Default : No
Forced : No

Menu
00:00:00.000 : :Chapter 01
00:05:00.000 : :Chapter 02
00:10:00.000 : :Chapter 03
00:15:00.000 : :Chapter 04
00:20:00.000 : :Chapter 05
00:25:00.000 : :Chapter 06
00:30:00.000 : :Chapter 07
00:35:00.000 : :Chapter 08
00:40:00.000 : :Chapter 09
00:45:00.000 : :Chapter 10
00:50:00.000 : :Chapter 11
00:55:00.000 : :Chapter 12
01:00:00.000 : :Chapter 13
Джерело: &
Особиста оцінка: 0 - не дивився
Всупереч смерті / Hard to Kill (1990) AVC 3xUkr/Eng | Sub Eng

Всупереч смерті / Hard to Kill (1990) AVC 3xUkr/Eng | Sub Eng


Срібний реліз (на рейтинг впливає 50% завантаженого)
 Трекер:    Зареєстрований   

Завантажити / скачати фільм українською



відео для новачків



 Зареєстрований:   2018-09-24 21:41
 Розмір:   2.61 GB 
 Оцінка фільму:   4.8/10 (Голосів: 12)
   
Інші релізи
   Всупереч смерті / Hard to Kill (1990) 3xUkr/Eng bodia87  2 / 0   1.84 GB   2013-08-03 00:09 
VitNi 
Свій


З нами з: 05.05.12
Востаннє: 18.04.19
Повідомлень: 120

2018-09-24 22:39  
не знаю як можна дивитись тупі фільми з чмошником Сіґал...
reiser44 
Свій


З нами з: 12.11.14
Востаннє: 18.04.19
Повідомлень: 77

2018-09-24 23:33  
... та ще й прокацапським! ))
aeromobil 
Новенький


З нами з: 11.12.16
Востаннє: 16.04.19
Повідомлень: 1

2018-09-25 14:59  
не качайте це гімно з промоскалячою мерзотою

Додано через 59 секунд:

промоскалячу Ху#ло

Х-Хед 
VIP


З нами з: 06.05.12
Востаннє: 16.04.19
Повідомлень: 400

2018-09-29 20:50  
Та ж у Сіґала половина всякої далекосхідноросійської крові:бурятської, удмуртської, а також білоруської, корейської, української і жидівської і рускої. Що ви в нього хочете?)))
Ваш часовий пояс: GMT + 2 Години

Нова тема   Відповісти